<?xml version="1.0" standalone="no"?>
<!DOCTYPE svg PUBLIC "-//W3C//DTD SVG 1.1//EN" "http://www.w3.org/Graphics/SVG/1.1/DTD/svg11.dtd" >
<svg xmlns="http://www.w3.org/2000/svg">
<metadata></metadata>
<defs>
<font id="momstypewriterregular" horiz-adv-x="1167" >
<font-face units-per-em="2048" ascent="1638" descent="-410" />
<missing-glyph horiz-adv-x="1024" />
<glyph horiz-adv-x="2048" />
<glyph horiz-adv-x="2048" />
<glyph unicode="&#xd;" horiz-adv-x="1024" />
<glyph unicode=" "  horiz-adv-x="1024" />
<glyph unicode="&#x09;" horiz-adv-x="1024" />
<glyph unicode="&#xa0;" horiz-adv-x="1024" />
<glyph unicode="!" horiz-adv-x="518" d="M205 1632q33 4 78 -22q4 -10 18 -25q16 -4 47 -18q12 -8 32.5 -52.5t20.5 -62.5q-6 -16 -10 -49q10 -12 23 -35q8 -43 -6 -108q-8 -12 -17 -25q-10 -51 10 -61q2 0 -10 -17q2 -35 0 -98q-6 -4 -12 -10v-13q16 -49 22 -49q4 0 -16 -31v-28q29 -8 66 -19q4 -8 12 -18 l-12 -12q-10 -4 -27 0l-23 6l-6 18q-10 4 -18 4q-20 0 -21 -26q0 -20 11 -45q6 -4 18 -13q-10 -51 -31 -143q-2 8 -6 -12l12 -13q4 -14 -12 -77q-2 -6 -34.5 -36t-37.5 -32q-6 0 -33.5 5t-31.5 7q-4 10 -12 25q-16 8 -37 31q-23 57 -17 143q0 8 9.5 32.5t7.5 41.5 q-8 10 -17 24q-16 47 -12 90q0 2 9.5 21.5t9.5 25.5q-20 23 -43 68q-2 14 4 46t6 46q0 16 -4 29q-10 2 -22.5 13t-21 37t-12.5 161q-6 137 2 157q4 14 65 65.5t79 53.5zM444 1114q33 -20 33 -24q0 2 -20 -31h-25l-12 12q4 16 6 37q8 0 18 6zM391 745q43 -6 43 -14 q0 4 -14 -33q-8 2 -47 23q6 18 8 19zM233 383q37 8 62 0l29 -29h18q4 -8 12 -18q31 -8 72 -37q4 -29 12 -84q12 0 31 -6q0 -14 10 -31v-12q-8 -4 -16 -12v-23q4 -6 16 -25q-33 -10 -78 -36q0 -12 -7 -36t-77 -36q-121 -23 -165 12q-10 6 -15.5 25.5t-9.5 27.5q-14 10 -31 25 q-2 18 -12 59q-8 10 -16 25q-4 23 6 41q8 12 16 27v16l12 6q18 51 54 80q4 8 12 18q12 -2 31 0q2 4 6 17q10 4 28 6zM516 125q39 2 39 -23q0 -8 -14 -8q-39 -2 -39 21q0 8 14 10z" />
<glyph unicode="&#x22;" horiz-adv-x="837" d="M211 1663q53 6 84 -23q0 -10 5 -22t32.5 -24.5t44.5 -8.5q6 8 14 19h15q12 8 32 18q16 0 49 4q33 16 99 37q23 2 53 -12q20 -12 43 -25v-18l41 -23l22 8q2 -4 11 -18l8 -4q10 -25 0 -51l-8 -4q6 -6 4 -33q0 -2 -14.5 -18.5t-12.5 -26.5q10 -8 23 -25q4 -8 4 -18 q0 -8 -10.5 -27.5t-8.5 -40.5q4 -16 9 -33q6 -25 2 -37q-23 -10 -47 -28q0 -16 -5 -45h-10q-4 -25 -4 -27q0 -8 19 -14q6 -4 22 0l6 -15q-10 -8 -28 -18h-19q-18 -12 -27 -125q-82 -27 -79 -27q-20 0 -56 27h-8q-4 6 -10 19h-8q-6 10 -5 33.5t-6 35.5h-8q-23 8 -28 23 q2 8 0 22q6 2 13 8.5t15 10.5v18l-4 10q0 12 -6 37q-10 10 -23 27q-2 14 13.5 33.5t15.5 33.5q0 12 -6 25q-10 6 -27 25q-6 12 0 40q-4 12 -8 27q-4 4 -22.5 9t-28.5 5q-20 0 -25 -20q-8 -35 -12 -41t-29 -16q-4 -20 -10 -52q8 -2 25 -8q-8 -6 -15 -14q2 -10 5 -33 q-4 -16 -15 -51q8 -2 12.5 -4t6.5 -19q-4 2 -13 -22h-10q0 -4 10 -14q2 -18 -10 -37q-14 -6 -33 -23q-2 -8 6 -51q-18 -6 -47 -23q0 -4 -4 -14q-10 -16 -51 -22q-20 20 -51 69q-20 49 -12 129l4 15q4 16 4 26q0 2 -4 18.5t-4 18.5q0 4 6 35t2 47q-6 6 -15 14q0 23 -12 51 q2 2 4 9q-10 12 -22 32q-10 29 0 52l8 4q-6 31 -4 98q0 2 15.5 29.5t16.5 29.5t50 12.5t51 10.5zM362 1575q-8 -4 -26 -12q0 -2 4 -25l14 -4v-8q-2 6 -4 -15q8 -8 8 -10h-8q-4 -10 -14 -22h-4q2 -4 4 -19h14q2 0 23 -14q14 0 35.5 11t23.5 22v77q-16 6 -33 13q-23 8 -37 6z " />
<glyph unicode="%" horiz-adv-x="1222" d="M956 1649q2 -8 9 -23q12 -2 28 -14q0 -8 8 -27q8 -4 15 -8q-4 -4 -4 -14q6 -8 12 -19q6 -29 -6 -39t-21.5 -21t-10.5 -43t-7 -44q-12 -8 -33 -23q-25 -31 -12 -106q-4 -4 -10 -8q-6 4 -23 4q-2 0 -18.5 -12.5t-18.5 -14.5v-18q-4 -20 -18 -41q-14 -12 -37 -37 q2 -14 -4 -43q-16 -8 -37 -35v-33q-6 -10 -14 -22q2 -18 -4 -60q14 -8 41 -24v-4q25 -4 106 18l49 14l6 -10q31 2 90 -4q6 -8 19 -18q10 0 29 -5q10 -6 16 -22q10 -27 10 -29q10 -14 47 -30q-6 -45 4 -62l9 -4q-2 -18 0 -51q10 -4 18 -17q0 -2 -23 -79q-14 -47 0 -72 q-18 -10 -41 -29q6 -25 5 -26q-12 -14 -27 -37v-29q-33 -8 -47 -18q-8 -18 -31 -50q-10 -8 -36.5 -11t-37.5 -7q-14 -14 -41 -33q-20 -6 -77 -2q-53 2 -66 6v6q-8 2 -27 13q-2 4 -4 14q-10 0 -28 4q-8 12 -27 29q-10 0 -33 8q-6 8 -18 19h-4q4 12 0 47q-16 12 -33 26 q0 4 8 30t10 30h15l4 14h8q-2 27 0 27q-14 10 -31 28q0 -2 9 37h10q2 12 8 41l4 4q-4 12 -16 27q-4 2 -43 -8v-19q-12 -8 -31 -26q-6 -12 -2 -29q4 -12 2 -14v-5q-6 2 -14 0q-4 0 -22.5 -19t-18.5 -22q-4 -14 1 -41.5t-1 -46.5q-6 -2 -15.5 -10t-21.5 -31q-6 -2 -19 -8 q0 -6 -4 -14h-6q-2 -8 -2 -16t6 -25.5t2 -32.5q-16 -8 -37 -26v-15q-8 -6 -14 -14q2 -14 4 -37q-10 -8 -26 -27q-2 -8 -11 -26l-8 -6v-31q-6 -10 -14 -29q6 -2 18 -8q6 -4 19 -10v-15q-18 -2 -56 -8q0 -12 -4 -41q-6 -2 -14 -4q0 -6 -4 -14q-6 0 -19 -4q-6 -10 -14 -19h-18 q-12 -23 -31 -51q-12 -8 -31 -8q-61 0 -80 45v18q-2 10 0 19q6 8 19 27q0 27 12 73q12 8 25 19q-2 6 0 18q8 8 18 23q-2 8 0 22l27 70q12 4 28 14q4 16 19 49q8 4 20 23q-2 8 2 24q14 16 23 23h14q-4 45 4 51q8 0 23 8q2 20 4 56q4 0 12 6t17 4q0 -2 3 -9.5t11 -4.5v14 q10 0 27 8q0 8 4 23l14 14q2 8 -29 45h11q2 14 14 43q4 0 12 4l25 41q-6 12 -6 41q10 8 24 23q8 25 27 69q-20 18 -41 17q-27 -6 -51 -13q0 -2 -9 -4q2 -6 5 -22q-4 -14 -45.5 -38t-61.5 -28q-14 4 -45 6q-20 -4 -41 -6q-31 -4 -47 0q-10 14 -31 33q-8 0 -22 4q-4 6 -11 14 q-12 0 -32 4q-2 12 -9 33l-10 4q-37 96 -31 133q4 20 13 70h10q-2 23 4 68q2 4 82 61q-6 51 -4 59q8 33 88 68q10 2 33 10q4 6 12 19q10 2 33 8l4 10q27 6 51 0q8 -10 23 -18q47 -10 100 8q10 6 25 14q10 0 34 4q2 6 7 15q14 4 40 18q2 8 9 19q12 2 32 8q6 18 27 43 q8 4 33 4q14 0 22 4q12 25 33 59q8 2 29 11q2 8 12 22h14q6 8 19 18q23 -6 63 -10q10 6 33 23h23q4 12 14 24q6 -2 14 0q-2 5 4 13zM657 1286q-12 -12 -41 -26q-6 0 -13 6t-9 8q-6 0 -47 -10q2 -8 -4 -19h-8v-31q6 -4 22 -14q-10 -12 -33 -37q2 -6 11 -14v-8q-4 -2 -11 -6 q6 -66 4 -68q-4 -2 -12 -4q4 -39 0 -74h12q-4 0 47 12v11h15q0 4 6 12t16 20q-4 31 4 91q8 2 19 6q0 4 4 12q10 2 29 6q-16 35 -15 41q4 4 9 14q14 -2 14 0q-2 10 -4 31q12 6 37 15q-25 32 -52 26zM305 1237l-10 -10q-16 0 -49 -8q-8 -12 -25 -29q-8 -6 -67 -19 q-27 -100 -27 -141q0 -18 2 -37q-2 -23 0 -55h14q0 -6 4 -18h11q4 -8 14 -19q2 0 45 -4q6 0 29 4v10q8 0 22 9q0 10 8 28q16 2 41 13q2 6 7 14h8v8q10 8 22 18q2 6 -4 48q18 10 37 22q-2 8 0 19q8 -2 23 0q2 2 14 26q-8 6 -9 16.5t-5 12.5q-8 -2 -23 0l-18 22q2 14 4 33 q-2 10 -26 24.5t-42 12.5zM494 934l4 -10q10 2 4 6h2q-6 4 -10 4zM938 750l-10 -15q-8 2 -27 -4q-4 -2 4 -14h-8q-2 -6 -10 -17q-12 0 -41 -6q-14 -6 -15 -12q0 -18 52 -33v-14q-14 -6 -4 -37q-2 -6 -11 -18q-2 -2 -31.5 -7.5t-29.5 -15.5q0 -8 23.5 -24.5t74.5 -16.5 q2 12 4 33q16 8 33 22q2 10 10 31q12 14 26.5 31.5t10.5 38.5q-18 16 -47 45v10q18 10 19 12q0 -3 -23 11zM1212 635q10 0 9 -8q-4 -8 -2 -11q-12 2 -7 5q-10 0 -10 8t10 6z" />
<glyph unicode="&#x26;" horiz-adv-x="1601" d="M600 1638q18 2 83 -13t79 -23q6 -10 18 -23q31 0 78 -25q0 -16 10 -53q14 -12 37 -37q6 -29 25 -78q8 -2 22 -10q-20 -70 -16 -90q2 -6 7 -14t3 -17q-23 -31 -47 -90q0 -10 6 -41q4 -23 -6 -43q-8 -2 -18 -4q0 -12 -13 -37q-14 -6 -34 -24q0 -12 -7 -29q-12 -2 -30 -6 v-12q-14 -6 -34 -1t-32 1v-6q-16 -8 -84 -66v-25q-4 -39 0 -53q4 -10 33 -28.5t35 -24.5q-2 -8 0 -18q6 -18 28 -31v-6q20 2 72 6q0 10 4 49q2 25 -2 40t-20 25q8 2 6 13q47 4 133 22q-55 29 -55 62q0 18 24 35q25 4 66 24q2 14 15 39t38 33q31 -2 90 0q18 8 43 18 q16 0 63.5 -16.5t61.5 -26.5q45 -31 53 -53v-18q20 -4 54 -19q8 -6 10 -22q2 -12 0 -25q-2 -12 -4 -6q2 -16 12 -60q-12 -27 -12 -55q0 -12 6 -10q-8 -2 12 -6v-19q-6 -8 -18 -18q-14 0 -47 -6q-18 -10 -54 -23q-14 -2 -45 11q-37 12 -45 12q-12 -2 -37 0q-4 12 -24 26 q-6 0 -23 5q-4 8 -18 24q-20 14 -66 16v-10q-25 -16 -28 -37q6 -6 6 -18l-13 -6q4 -2 7 -17q-6 -8 -11 -14q-8 -12 -8 -16t6 -9.5t6 -9.5q-14 -12 -30 -35q6 -39 0 -84q35 -12 35 -14q6 -16 12 -35q-27 -10 -53 -28q12 -53 18 -74q18 -55 37 -62q14 2 47 -2q4 -2 4 -14 q0 -10 -4 -10q43 -6 84 -6q4 23 23 53q6 4 57 20q33 8 37 37q2 23 98 33q2 -6 6 -12q16 -8 34.5 -39t31.5 -39q31 -8 90 -29q-10 -14 -6 -18q-23 -12 -66 -35v-25q41 -8 107 -24l-7 -23h-83q-2 -6 -4.5 -9t-24.5 -9q4 -8 12 -18q12 2 35 0q10 -6 31 -19q-8 -29 -6 -29h-127 q-8 -6 -15.5 -27.5t-12.5 -26.5t-39 -20.5t-40 -15.5q-10 -2 -31 2q-12 2 -22 4q-35 -10 -109 -12q-8 8 -18 19q-14 -2 -41 0q-12 8 -37 22h-23q-8 8 -18 19q-20 0 -59 12q-16 14 -60 53v12h-12q-12 -10 -31 -24q-8 2 -18 0q-10 -18 -29 -41q-12 0 -37 -6v-13 q-6 -16 -47 -28q-20 0 -59 -6v-13q-14 -6 -31 -12q2 0 -90 6q-33 -6 -107 -6q-33 10 -84 25q-14 -2 -43 6q-14 20 -34 47q-12 4 -37 18q-4 8 -17 23q-12 2 -36 12l-25 43q4 6 6 16q-14 12 -35 31q-4 20 -18 66q-10 10 -25 24q2 10 0 29q-8 16 -16 37q2 6 6 31q-4 18 -8 38 q-4 27 1 47.5t32.5 41t27.5 22.5q-4 27 0 76q10 4 23 12q2 14 12 43q10 2 23.5 14.5t19.5 75.5q20 6 60 23q4 8 12 18q6 -2 18 0v6q18 10 21.5 20.5t13.5 39.5q4 8 55 61q45 45 47 64q2 25 -24.5 59.5t-30.5 48.5q0 41 -10 137q-2 4 -16 31q-10 20 -9 41q10 23 25 53 q-2 12 0 31q6 0 16 6q2 2 13 35q-2 23 0 61q14 10 30 23q0 10 6 25h17q8 10 24 24q18 -4 60 6q4 6 12 17h19q4 10 14 16t51 14zM643 1483v-6q-8 0 -25 -7v-12q-14 -4 -32.5 2t-26.5 4q-16 -2 -49 -37.5t-35 -50.5q-4 -16 4 -36.5t8 -30.5q-10 -18 -18 -47q-10 -68 6 -103h6 q12 -6 24.5 -37.5t22.5 -40.5q25 -6 72 -22q4 8 12 22h13q0 16 12 37q12 0 35 6q27 16 59 97q-20 8 -47 34v19l6 6q23 23 25 29q0 8 -6 30q0 6 6 13q6 -18 16 -54h12q10 -14 19 -30l12 6q-2 12 0 35q0 12 7 28.5t7 24.5q0 14 -20 31q-18 6 -43 18q-2 12 -10 37q-12 4 -37 16 q-2 2 -6 19q-6 4 -29 0zM696 1430q8 0 12.5 -4.5t2.5 -6.5q-4 -4 -15 -2q10 0 -6 -6q-6 17 6 19zM494 772q-20 -2 -54 -24q-43 -27 -49 -31q-8 2 -24 0q-8 0 -51.5 -20.5t-47.5 -25.5t-8 -14q-20 -27 -49 -59h-6q2 -6 0 -18q-8 -4 -17 -13q-12 -31 -8 -71q8 -70 8 -78 q-10 0 -6 -2q2 -2 6 -4q6 -2 0 -4q-4 0 7 0q-4 -10 -7 -19q14 -8 35 -18v-6q2 0 -6 -7q0 -14 -6 -53q16 -20 49 -47q16 -12 43 -12h35q16 -12 41 -25q18 2 53 0l19 -12q14 -2 35.5 3t35.5 3q2 0 20.5 -11t32.5 -7v12q2 2 20.5 18.5t22.5 18.5h7q2 16 18 47q12 6 41 24v13 q20 10 59 35q2 14 0 43l-12 4q-10 12 -29 43q-2 12 -6 34q-2 2 -49 84q-20 4 -59 31q0 10 -7.5 29.5t-58.5 54.5q8 12 16.5 24.5t2.5 28.5q-12 31 -43 31h-4zM1126 424q12 -2 11 -18q-4 -16 -4 -17q-14 2 -48 12q-16 4 -18 9q0 -6 41 2q16 14 18 12z" />
<glyph unicode="'" horiz-adv-x="487" d="M227 1640q10 -8 29 -18q6 4 20 4q6 -6 15 -16q25 -10 57 -29q6 -18 23 -55q6 -6 16 -21q-2 -6 0 -16q10 -12 25 -39q-4 -12 -4 -45l8 -8q2 -6 12 -56l-12 -8q2 -10 0 -26q-18 -18 -45 -50q4 0 -4 -8q4 -14 4 -47q-8 -6 -19 -20q-4 -23 16 -52l19 -28q2 -27 -35 -60 q4 -2 2 -20q-4 -18 -8 -20.5t-18 -8.5q-12 -23 -41 -51q-18 -8 -45 -8q-78 0 -103 33q-43 55 -30 155q6 16 4 21q-6 8 -13 18q-4 53 -16 113q2 2 4 8q-10 16 -20 35q6 8 8 37q-6 4 -10.5 10t-6.5 51q-2 47 0 58q10 12 25 36q0 14 8 43q14 4 35 17q2 14 12 37q2 4 42 19 t46 15z" />
<glyph unicode="(" horiz-adv-x="538" d="M367 1638q14 2 45.5 -11t42.5 -21q0 -8 4 -19q8 -2 20 -12v-8h-8v-17l-12 -4q-2 -37 0 -43q-20 -12 -56 -20q2 -8 0 -25q-6 -6 -16 -12v-14q-4 -4 -4 -13q4 0 12 -4q0 -6 4 -20q-31 -4 -75 -21v-8q4 2 4 -12q-4 -4 -17 -11v-8q-12 0 -24 -4q-2 -2 -6.5 -29.5t-4.5 -33.5 l19 -25q-33 -23 -59 -33q2 -41 4 -30q-8 -10 -9 -13l25 -28l-12 -4q2 -6 0 -17l-29 -18q4 -14 4 -17q-10 -6 -20 -20q-2 -4 3 -17l5 -12v-63q-14 -8 -31 -25q-4 -12 -8 -35q-6 -49 -4 -71q6 -8 12 -21q-4 -8 0 -20v-8l-8 -5q-10 -27 -4 -47q10 -8 20 -20q-4 -8 -8 -27 q0 -2 5 -12t3 -16q0 -2 -12 -21q0 -16 10.5 -25.5t20.5 -17.5q2 -12 12 -37q8 -6 25 -16q-8 -29 -9 -31q6 -6 13 -16q2 -6 -4 -25q0 4 8 -26q-6 -4 -2 -29q2 -20 6 -29h8q2 -8 8 -16q18 -8 47 -27q8 -16 25 -45q14 -10 39 -35q2 -8 12 -20q6 -2 17 -8q0 -6 4 -17 q16 -4 43 -22q0 -8 8 -25q6 0 15 -4t48 -72q0 -16 -18 -28q-6 -4 -29 -17h-16l-27 -22v-8q-6 0 -18 -6.5t-22.5 -14.5t-28.5 -4q-12 2 -21.5 16.5t-13.5 16.5q-10 4 -29 14q-4 10 -16 29q-25 14 -64 51q-2 8 -8 29q-10 6 -22 24q2 8 0 21q-14 12 -37 39q-16 37 -9 71l5 5 q4 6 4 8l-9 4q0 8 -4 28q-20 14 -51 47q0 12 -8 37q-8 6 -16 19q4 16 0 57q-8 12 -21 31q0 8 -4 28l-10 5q-14 25 -17 67q4 8 4 29l-8 8q0 8 4 29.5t4 25.5q6 86 5 97q-4 6 -9 16q6 35 9 88h-5v23l-8 4q-8 39 0 80q10 12 21 36q8 35 14 70q10 47 25 57q-4 10 -9 21 q14 16 37 47v12q6 2 10.5 6t8.5 31q-2 10 0 27q8 4 20 16v16q6 8 13 17q6 14 0 59q25 6 55 25q-2 8 4 20q18 6 45 23q0 4 4 16q23 35 80 56l4 4q2 6 4 22q3 8 19 10z" />
<glyph unicode=")" horiz-adv-x="542" d="M72 1638q53 8 98 -20q14 -8 24.5 -30.5t16.5 -28t14 -11.5q8 -14 27 -43q14 -8 31 -20q0 -8 8 -25q6 -4 12 -10v-12q6 0 12 -4v-21q10 -12 23 -31q-2 -8 0 -20q6 -27 68 -74q-10 -39 0 -55q8 -2 16 -8q-2 -10 -4 -35q6 -8 12 -21q-2 -8 -4 -22q2 -6 31 -21q0 -2 4 -8 q-10 -12 -21 -35v-55q18 -12 60 -39v-12l-31 -21v-61q10 -6 35 -25q2 -10 0 -30q-8 -2 -17 -13q-2 -6 7 -17l10 -11l-12 -31q-2 -4 0 -12q6 -2 16 -8q0 -8 4 -23q-16 -6 -35 -20v-9q4 -6 14.5 -11t36.5 -11v-8q-4 -2 -12 -4q6 -2 -12 -9q-2 6 -8 13h-4q-18 -14 -19 -21 q0 -8 39 -18v-21q-14 -2 -35 -8q0 -8 -4 -18h-4q2 -2 8 -21q-8 -14 -24 -31q-6 2 -13 0q0 -4 9 -16q2 -6 10 -9t28 -7q0 -6 5 -15q-6 0 -15 -4q-6 2 -20 0q-4 -6 -9.5 -9t-17.5 -7q0 -31 -4 -80q-2 -10 -4 -19q-6 -25 -16 -38q-8 0 -17 -9q2 -8 4 -20q-6 -4 -14 -14 q-10 0 -10 -7l2 -10q8 4 22 8v-12h-8q2 -29 -6 -76q-6 -4 -17 -14q-2 -18 -20 -47q-16 0 -43 -17q-4 -14 -12 -34q-16 2 -47 -4q-6 -4 -15 -13q-14 -4 -45 -20q-14 -12 -30.5 -23.5t-43.5 -11.5q-55 0 -71 39q-2 14 -8 47q-14 35 -15 33q10 10 23 26q0 8 4 25 q4 10 25.5 18.5t25.5 12.5q12 14 39 43q6 0 16 8q0 23 17 59h12q4 0 62 31v20l-11 5q4 0 -4 26q2 0 35 21v12q-4 6 -9 13t-3 22q16 31 43 76l4 22q-2 -10 -4 12q6 12 12 31q-4 12 -4 47q8 8 16 25q10 43 4 67l-8 15q0 8 4 18l4 10q-2 14 -4 43q6 27 13 64q6 43 -13 82 q-6 4 -12 12q0 4 4 16.5t4 14.5q2 23 0 28q-6 6 -12 15q4 12 0 47q-6 2 -10 8t-9 21l-8 4q-2 12 -12 39l-8 4q-2 4 4 26q-2 25 -12 56q-14 10 -35 32q0 12 -8 35q-8 2 -13.5 9.5t-13.5 25.5q-4 0 -9 7t-16 26q-10 6 -26 22q2 10 -4 29q-14 8 -33 23q-4 2 -31.5 39.5 t-30.5 39.5q0 8 3.5 37t7.5 33h4q8 0 19.5 7t17.5 9z" />
<glyph unicode="+" horiz-adv-x="882" d="M428 1210q4 -2 10 -6q2 -10 13.5 -21.5t27.5 -21.5v-14q6 -8 15 -25h10q6 4 8 6q0 2 2 0q6 -4 10 -8q0 -8 -2 -24q-10 -2 -24 -9q-2 -2 1 -10t-1 -14q-2 -12 0 -16q0 -18 6 -54l10 -20q-2 -8 4 -31q4 -2 10 -4q8 -10 25 -25q10 -4 59 -10q37 6 109 4q51 -12 94 -43 q2 -2 2 -6q-10 -4 -14 -24q-6 -27 -9 -29t-12 -6v-6q-10 -10 -24 -19q-12 0 -45 -4l-11 -6q-6 -2 -79 -6q-39 2 -101 0v-8q-4 -2 -12 -7q16 -33 18 -67v8q12 0 41 2q-4 -2 -10 -6v-10q-16 -4 -41 -11q-4 -6 -10 -18q-12 -16 -10 -37q6 -2 20 -8q2 4 10 10q6 -12 11 -31 q-2 0 -6.5 -4t-22.5 -6q2 -10 2 -22q2 -4 16 -13q-4 -2 -9 -5t-11 -5v-8l-33 -35q-6 -2 -20 -10q-2 -4 -6 -10q-2 0 -54 10q-8 0 -24 4q-8 4 -16.5 28.5t-10.5 30.5l-8 5q-4 20 -2 47l6 4v20h6q2 12 0 15q-12 8 0 45q-8 6 -6 24l6 8q12 41 -6 66h-6q-6 4 -12 10 q-14 -2 -41 0q-10 6 -31 14q-6 0 -21.5 -3t-21.5 -5q-2 0 -15 4l-12 4h-65q-25 4 -41 35l-6 6q-2 12 -2 23q0 25 36 41q25 0 84 4q53 6 41 6q2 0 14.5 -4t20.5 -2l14 14q12 -2 29 -4q8 0 41 17v14q4 10 8 39q-2 0 -8 4q2 4 -2 12q-4 4 6 23q14 33 15 61q-4 23 -9 58 q6 6 13 16q-2 6 0 14l6 4q16 35 53 41z" />
<glyph unicode="," horiz-adv-x="790" d="M414 506q18 2 50 -11.5t40 -23.5q4 -16 16 -41q18 -10 51 -31q2 -2 39 -41v-10q10 0 27 -8q4 -6 10 -18q-8 -4 -4 -27q14 -16 8 -23q-10 -8 -10 -32q0 -35 -4 -43l-8 -9q4 -23 4 -67l-12 -43q-8 -23 0 -43v-8q-27 -25 -56 -52q-4 -10 0 -49q-37 -49 -49 -53h-8 q-2 -10 -10 -31q-18 -41 -49 -59q-18 -2 -54 -12q-4 -12 -14 -29q-6 2 -16 0q-6 -8 -19 -16q-18 -6 -76 8q-29 2 -73 18q-2 2 -12.5 65.5t-8.5 73.5l8 5q0 10 4 26h9q12 16 41 41v4h18l37 27q2 10 0 33q-6 4 -14 12q0 10 -5 31q-31 25 -71 67v19q-18 18 -45 49q-2 12 -11 41 q-8 12 -8 14q10 12 23 39q-2 18 4 49q8 4 22 14q2 10 15 37q8 12 25.5 17.5t35.5 9.5q33 10 33 23q0 8 -10 16q6 6 14 10q14 -4 45 -4l4 12q29 23 64 23z" />
<glyph unicode="-" d="M399 1038q18 4 21 -8v-24q8 -4 16 -9q12 -2 31.5 9.5t32.5 11.5l12 -8q12 -4 26.5 2t24.5 6q14 -6 37 -12q27 2 84 4q25 -6 31 -4q12 6 28 12q8 0 23 -6l14 -6q16 2 43 4q8 -10 21 -23q16 -4 43.5 5t44.5 5v-4q14 -6 43 -22l4 -8q14 2 41 -5q23 -37 51 -84l12 -8 q2 -8 -3 -16l-5 -8q2 -4 4 -19h4q0 -6 -4 -20q-2 -4 -36.5 -39t-38.5 -37q-25 -12 -71 -13t-89 -3q-2 0 -26.5 -5.5t-37.5 -3.5l-14 6q-14 7 -18 7q-6 -6 -17 -13q-2 0 -55 9q-16 -4 -55 -4q-6 0 -19.5 6t-21.5 6q-10 -2 -21 -6q-18 -4 -31 -2q-12 6 -28 12q-8 -2 -29 -4 q-16 6 -39 12q-6 0 -27.5 -8t-23.5 -8q-8 0 -31.5 8t-30.5 8q-14 2 -92 -4q-55 -4 -86 8q-2 6 -8 13q-41 33 -49 86q-20 115 8 133h21l4 8q33 23 71 47q31 -6 93 -8q6 2 15 6t19 2t31 -20.5t35 -18.5l10 10q12 6 12 11q0 2 -6 6t-6 8q0 10 4 16q-10 0 4 4z" />
<glyph unicode="." horiz-adv-x="692" d="M315 406q16 0 26.5 -7.5t18.5 -13.5q25 -2 72 -14q12 -16 35 -41q27 -6 72 -31q2 -8 8 -29q12 -8 31 -26q0 -14 8 -49q8 -8 16 -19q12 -43 -12 -80q-6 -2 -17 -8q-8 -16 -26 -43q-14 -6 -33 -20q-6 -16 -18 -35q-18 -2 -50 -13q-6 -8 -18 -20q-37 -29 -72 -31 q-12 4 -47 4q-23 -4 -28 -4q-31 6 -115 68q0 6 -4 14q-8 2 -21 12q-2 18 -12 52q-10 6 -23 20q-4 12 3 21q10 16 10 18v8q-4 4 -16.5 25.5t-12.5 30.5q0 4 21 20q0 14 4 43q14 8 35 29q0 6 4 20h4q16 18 51 47q18 2 51 13q0 4 4 14q14 25 51 25z" />
<glyph unicode="/" horiz-adv-x="1126" d="M1038 1683h15q-4 -6 -4 -20h4q10 -6 28 -51q-41 -4 -51 -4h-43q-2 23 10 55q-2 0 13 0q-1 0 28 20zM963 1561q8 -2 16 -5q0 -10 4 -28h10q18 -8 19 -15q0 4 -11 -20q-12 -2 -34 0q-4 2 -6 6q-8 4 -15 2l-12 -12q2 -10 12 -31q6 0 17 -4q0 -4 -5 -12h-12q-8 -35 -8 -29 q0 -2 4 -10t4 -12q-18 -23 -43 -56q-2 -10 -12 -47q-8 -8 -19 -20q0 -4 11 -35q-47 -35 -70 -92l-8 -4q0 -8 -4 -23q-8 -4 -17 -16q0 -4 9 -35q-29 -8 -31 -10q-10 -6 -17 -31l-8 -10v-13q-10 -6 -20 -20q2 -12 0 -35q-8 -2 -19 -8q2 -8 0 -21q10 -8 23 -22q-2 -4 0 -12 q-61 -4 -59 -4q-2 -10 -9 -29q-12 -8 -30 -27q0 -10 -5 -28q0 -2 -34 -35q4 -8 14 -43q-18 -10 -43 -29q-2 -8 -8 -27q-10 -6 -31 -20v-8q2 -29 -4 -56q2 -6 0 -18q-6 -2 -10 -9t-10 -24q-8 0 -23 -4q-2 -10 -8 -26q-12 -8 -29 -25q0 -8 -4 -27q-8 -8 -18 -24v-4q8 -4 8 -23 v-20q-2 -6 -12 -17q-14 0 -37 -8q-2 -8 -11 -27q-10 -8 -28 -20q6 -41 -4 -47v-16q25 -23 24 -29q0 -8 -20 -27q-29 4 -39 0q-8 -4 -10 -15t-2 -20l-35 -16v-12q6 -4 14 -8v-19q-10 -4 -22 -12q2 -8 4 -29q12 0 0 -31q-8 -2 -29 -8q-6 -8 -18 -16h-17q-2 -6 -8 -14 q-35 -10 -111 8q-12 76 -12 78q0 6 21 32v35q6 10 12 25v22h6q8 4 17.5 26.5t15.5 29.5q20 6 47 28q0 20 8 60q16 16 39 47q0 8 4 26q6 8 16 21q2 10 9 39l8 4q2 12 10 37q14 12 33 34v9q14 6 35 26q4 18 16 56q6 6 16 20q4 14 19 43q4 2 12 8q10 29 39 84q20 20 45 51v15 q6 0 14 4q0 8 9 29q8 8 18 27.5t33 62.5q10 10 24 28v17q10 10 27 26q-2 4 0 13l8 4q2 10 8 30h9q0 16 8 52q12 6 26 16q4 23 17 64q12 10 35 30q10 12 19 42t19.5 40t28.5 33q-2 10 4 33q8 4 25 12q4 10 12 31l35 20h27q10 18 28 43q12 0 35 8q-4 6 -4 13q4 6 16 34z M279 113q16 -16 16 -21q0 -4 -8 -10h-13q3 13 5 31zM283 49v-26q-4 2 -9 4q-5 4 9 22z" />
<glyph unicode="2" horiz-adv-x="1198" d="M543 1638v-12q12 -4 28.5 -9t36.5 -5q18 0 52 4t51 4q20 0 37 -4q16 -12 45 -29h18q8 -10 23 -22q12 -4 28.5 7t32.5 9l6 -10q18 0 51 -6q6 -10 19 -23q8 4 28 4q0 -4 11 -10v-12q-33 -18 -39 -27q-4 -8 0 -47q10 4 33 6q2 -4 12 -12v-58q55 -4 63 0q2 10 11 25 q18 -8 51 -29q2 -8 6 -18q8 0 16 -6v-55q-2 -2 -4 -19q-37 6 -51 6q-6 -4 -12 -12q6 -14 6 -39q-12 -6 -29 -16q-2 -4 6 -6q-33 -57 -28 -93q14 -29 32 -80v-57q-12 -6 -67 -16q0 -27 -12 -70q-18 -10 -39 -22q0 -14 -13 -39q-8 -6 -24 -6h-2q-16 0 -25 -7q-4 -23 -29 -57 q-14 -4 -45 -16q-8 -12 -34 -29q-16 0 -52 -6v-10q-10 -6 -34 -19v-10q-2 -4 -10.5 -4t-12.5 -2q-6 -12 -22 -29q-27 -2 -74 -16q-6 -14 -23 -35q-10 -6 -32.5 -6t-30.5 -6q-2 -16 -10 -39h-19q-8 -8 -22 -19q-14 0 -45 -10q-8 -14 -29 -41q-8 0 -23 -4v-12q-16 -12 -47 -29 h-16q0 -8 -6 -22q-20 -14 -45 -35v-29q12 -6 10 -10h-10v-19q-2 -4 -35 -22q2 -8 0 -17h-10v-41q0 -4 4 -10q16 -14 104 -22v16q8 0 17.5 -8t12.5 -9t48 -5q47 -2 53 0q8 12 23 28q4 2 57 23v6q16 0 41 -20.5t39 -20.5q2 0 14.5 8t14.5 10q18 -6 61 -6q12 6 41 23 q14 2 33 -4q12 -4 24 -9q23 -2 64 5q49 8 55 8q43 2 57 -6q4 -8 13 -17q23 -6 73 -5t74 -5q12 -2 45 -18q2 -12 0 -41q-51 6 -90 -7q-8 2 -22 0q-6 -6 -19 -16v-16q-8 -6 -16 -13q2 -8 0 -22q-25 -39 -64 -45q-12 2 -32 0q-14 -16 -41 -35q-45 -10 -80 12l-6 11 q-14 -2 -45 -7q-12 2 -29 7.5t-29 5.5q-10 0 -46 -8.5t-62 -4.5l-10 6q-11 7 -13 7t-20.5 -7.5t-30.5 -5.5q-12 8 -29 19q-14 -2 -41 0q-12 12 -32 28q-29 6 -84 0q-72 -6 -76 -6q-45 0 -99 11q-10 8 -28 18q-16 -2 -45 0l-6 10q-16 12 -29 51q-16 57 -16 54l12 10 q2 57 28 154q12 8 27 24v33q10 18 25 41q6 2 22 10v12l39 23v12q8 0 23 4q6 14 24 41q16 8 39 23q0 10 6 28q33 23 80 58q27 23 29 28q0 25 0 17q18 0 51 6q12 18 35 41q14 -2 39 0q14 10 41 27q-2 4 -6 18q4 2 10 6l-4 17q12 2 45 12q6 8 16 16q8 -4 29 -6q10 12 29 29h18 q0 12 4 28q6 6 29.5 10.5t27.5 9.5t19 15q-2 16 0 45q16 12 33 29q6 10 18 57q-8 16 -6 58q4 10 19.5 14t31.5 8v10q-10 16 -22 41q14 6 0 35q-18 12 -41 33q-4 10 -7 33q0 14 -17 22t-56 25q-25 16 -29 28q2 8 0 19q-12 8 -49 8h-8q-25 0 -39 2q-6 2 -34 17.5t-46 15.5 q-8 0 -16 -4l-25 -29q-27 0 -84 -10q-6 -8 -12 -19q-6 2 -17 0v-4q-14 -18 -35 -41q-12 0 -31.5 -8t-47.5 -26v-11q-2 8 -7 -6q4 -35 17 -73q0 -6 -4 -13q-8 2 -23 0q-41 -10 -53 -35q2 -8 0 -22q-8 -45 -20.5 -54.5t-63.5 -13.5q-10 12 -23 39q-2 12 4.5 37t6.5 27 q-4 23 -6 51l12 6q12 25 35 74v26q2 16 14 17q4 0 8 2v12q6 4 17 12q2 12 12 39q4 2 10 6q2 25 19 68h10q6 10 18 23q20 6 62 24q25 20 73 51q10 2 23 2h4q10 0 22.5 5.5t30.5 15.5q12 -2 35 0l12 10h39q2 0 8.5 6t10.5 6zM1159 1262q16 -27 17 -31q0 -10 -17 -14 q-6 -2 -8 -3h-8q-2 2 10 9l-27 20q0 5 33 19zM1159 1204q14 -14 0 -10q-6 6 0 10zM1073 1194q37 -18 57 -35q-27 2 -63 29q2 0 2 2l-2 4h6z" />
<glyph unicode="3" horiz-adv-x="1056" d="M444 1640q20 4 41 -4q12 -6 27 -12q23 0 66 -6q4 -2 22 -16q10 -2 40 7t32 9q35 4 100 2q59 -4 88 4q0 -10 6 -29l18 -15q19 -15 19 -32q0 -8 -4 -18q-6 -2 -16 -6l-29 -62q4 -16 0 -43q-6 -16 -33 -24q-41 -12 -43 -15q-16 -20 -55 -55v-12q-8 0 -23 -6q-4 -6 -12 -17 h-4q-12 -23 -6 -49h10q6 -20 29 -49q10 -2 26 -12q6 -20 29 -50q37 -2 100 -28q6 -23 27 -60q10 -2 23 -12v-10h16q6 -2 24.5 -18.5t20.5 -20.5q-6 -6 -6 -29q10 -6 22 -16q4 -12 -2 -31q-6 -16 5.5 -25.5t29.5 -21.5l6 -43q-20 -23 -39 -49q-2 -18 27 -78q-12 -6 -27 -16 q0 -16 -12 -45q-2 -8 0 -17q2 -2 12 -6q-4 -43 -16 -72q23 -10 66 -16q-16 -6 -39 -12v-17q-2 -2 -33 -26v-17q12 -2 33 -6q0 -29 0 -28q-12 2 -27 0v-11q-10 -2 -22 -10q-6 -20 -23 -55q-18 -10 -49 -35q-10 -37 -39 -88q-18 2 -51 -6q-2 -12 -4 -27l-52 -45q-8 0 -26 -4 q-10 -10 -29 -23q-20 0 -59 -6q-29 -16 -78 -34q-8 0 -29 -5q-4 -6 -16 -16q-29 -4 -88 -22q-10 -10 -29 -23q-12 4 -33 6l-10 -10q-35 -2 -100 -12l-10 -11q-109 -29 -150 -10q-25 8 -39 49q-4 6 -12 27q72 57 100 55q6 0 15.5 -6t11.5 -4v10q10 8 22 19q6 -2 17 0 q4 10 24 24q8 -2 27 2q6 8 22 29q-2 6 0 16q12 10 52.5 14.5t52.5 12.5q4 12 16 29q12 2 33 10v10q20 8 61 29q20 23 62 61q8 0 27 4q4 8 12 19q6 -2 16 0q18 12 23 20q-2 8 0 17q16 10 43 34q12 27 28 60q4 4 17 6q-2 8 0 22q16 18 49 62q10 10 22 33q6 16 5 71 q-2 55 -11 78q-4 2 -10 6v21q-6 4 -16 6q-2 2 10 6q-4 14 -10 55q-2 16 0 17q-35 55 -68 71q-14 2 -43 13q-6 10 -16 26q-29 18 -62 23q-27 4 -67 -8q-31 -6 -60 -15q-14 2 -39 0l-22 -22q-45 -27 -92 -27q-14 0 -21.5 6.5t-13.5 16.5q-14 -2 -35 4q2 8 0 16l-10 13 q-8 33 16 65q10 6 23 16q0 23 0 17h10q0 20 6 61q6 14 31.5 21.5t30.5 11.5q2 16 10 39q10 2 28 6q4 12 17 33q2 4 55 51v43q-4 2 -10 6q6 4 -18 39q18 8 55 27q10 14 22 28q-2 8 -10 33q-39 0 -103.5 8.5t-107.5 8.5q-2 0 -23.5 -3.5t-31.5 -3.5q2 6 0 7q-2 0 -5 -2.5 t-5 -4.5q-2 -8 -7 -26q-4 -2 -10 -6q2 -6 4 -17q-8 -6 -43 -26q-6 -8 -16 -17q-16 -4 -31 -4q-86 0 -86 68q0 16 10 35q6 4 17 16l16 6q-10 43 -10 39q4 6 10 16q90 6 90 7q4 0 34 -6.5t38 -6.5q6 2 27.5 14.5t38.5 12.5q8 0 16 -4q8 -14 22 -33q2 -2 56 -6q40 59 71 67z M512 1569v-39q18 -2 27 0q6 27 4 29q-17 4 -31 10z" />
<glyph unicode="4" horiz-adv-x="1067" d="M629 1638q20 4 73 -30q35 -23 68 -45v-11q-2 0 -6 -12h-21v-20h-12q0 -6 -4 -17v-43l-6 -18q-6 -17 -6 -21q2 -2 8 -27.5t4 -35.5q0 -2 -6 -8.5t-6 -8.5q14 -16 28 -38q-8 -14 -12 -48q10 -10 23 -28q4 -20 -6 -37q-16 -20 -17 -23q2 -14 0 -43l-16 -4q4 -25 -4 -88 q2 -2 2 -10t20 -14l27 -9v-10q-4 -2 -39 -43h-10q-2 -6 0 -37l16 -16q-2 -10 0 -29q0 -2 8 -16t8 -27q-8 -25 -6 -33q10 -4 23 -14q2 -4 10 -82q12 -2 33 -6q-4 -16 -17 -53q12 -6 27 -17v-10q8 -4 16 -4q14 0 33 9.5t21 11.5q8 0 135 -39q14 -31 29 -66q2 -25 -15.5 -37 t-34.5 -22q-6 -6 -16 -17q-18 6 -59 7q-23 -8 -66 -21q-12 -59 -43 -72q-6 -2 -65 -10q0 -2 -5.5 -10t-5.5 -17q12 -12 27 -32q2 -14 12 -39q16 -2 43 -15q12 -14 -6 -45q-10 -2 -82 -26q4 -102 6 -96q-4 -2 -10 -7q-12 -20 -22 -41q-16 -20 -43 -18q-18 2 -48 32.5 t-34 49.5q6 18 6 63q-4 6 -11.5 16.5t-5.5 26.5l11 7q10 27 12 53q0 6 -5 16t-7 17q2 33 0 81q-2 2 -11 7q0 27 0 26h-4v21q-8 4 -21.5 15t-43.5 28q-10 2 -41 -4q-37 -6 -41 -6q-39 4 -119 6q-45 -4 -92 -11q-63 -6 -92 5q-6 14 -27 32q-25 2 -59 17q-8 10 -9 34 q0 66 25 107q10 6 23 20q2 14 -5.5 37t-7.5 29q10 6 23 16v11q43 25 49 49q0 4 -6 53q29 10 35 14q20 10 24 25q-4 27 0 80q8 8 23 22q6 18 26 54q35 23 80 86v49q18 10 39 26q-2 18 0 50h6q14 27 37 75q0 10 6 27q16 6 37 22q0 20 6 60q6 16 37 65l12 4q0 12 5 27q2 6 6 16 h96q-2 31 -4 29q-2 8 0 27zM489 1206q2 -10 5 -26h-5q-2 -2 5 -13q-14 -6 -50 -20q-2 -8 -4 -23q6 -10 11 -20q-12 -16 -27 -39q2 -16 0 -49h-6q-2 0 -21 -17q-2 -6 0 -14l27 -16q-2 -8 0 -17q-14 -25 -39 -39v-10h-10q-6 -8 -27 -69q18 -16 33 -33l-23 -23h-20q-4 6 -12 17 q-16 -6 -47 -33q35 -33 16 -80l-12 -6q2 -8 0 -23q6 -2 39 -26q6 2 16 0q2 -4 4 -17q8 2 23 0q12 -2 26 -4q-10 6 0 17q31 27 55 26q14 0 27 -6q4 -6 16 -16q10 2 31 0q0 12 6 32q16 10 39 33q4 12 4 25q0 12 -7 32.5t-9 28.5q0 18 13.5 39t13.5 27q2 4 -5 16q4 2 11 4 q-2 12 -16.5 25.5t-16.5 19.5q2 4 0 15l-10 6v59v10q-20 14 -54 29q14 2 37 4v-16h17q25 10 32 39q12 39 5 65q-12 8 -31 27v20l-29 33q-11 0 -31 6zM711 330q6 -2 16 -6q-10 6 -16 6z" />
<glyph unicode="5" horiz-adv-x="1013" d="M242 1638q4 0 19 -8t18 -8q23 6 73 6l10 -10q14 -2 30 6t20 8q20 4 60 -11t60 -15q4 0 25 6t25 6q14 -12 36 -27q10 -4 23 -4q16 0 38.5 13.5t39.5 11.5q41 -18 117 -43q-6 -4 -17 -10q-10 2 -26 0q-12 -12 -31 -27q-23 4 -64 6q-14 -8 -32 -16q-29 0 -70 -6l-4 -11 q-14 6 -43 11q-2 0 -21 -15q-29 -8 -75 -4q-57 4 -68 4l-16 -10q-31 2 -90 0q-4 -6 -27 -16l-10 -7q-2 -18 -6 -53q14 -8 22 -16l-27 -15q-6 -10 -4 -48t-2 -52q0 -2 -5 -6t-5 -10q14 -16 33 -43q-2 -6 0 -17l10 -4q2 -20 -10 -26l-12 -7q2 -10 0 -26q-4 -2 -11 -4 q-2 -10 11 -49q2 2 26 10v16q16 12 60 43q27 -4 73 -6l17 12q72 14 143 -6q14 -4 37.5 -26.5t42.5 -26.5q33 -8 51 -6q12 18 33 16q10 -6 20 -16q14 0 43 -4q12 -10 33 -21h14q-2 -14 0 -39q18 -12 37 -26q2 -8 6 -25q55 14 74 4q12 -6 12 -12q0 -12 -38 -31q16 -35 23 -40 t46 -1q2 -12 0 -33q-20 -23 -43 -73q2 8 10 -47v-13v-47q10 -41 13 -37l-13 -6q6 -57 0 -67q-14 -10 -30 -37q4 -14 6 -49q-8 -6 -17 -15q-6 -16 2.5 -25t14.5 -18q-2 -8 0 -20q-4 -2 -6 -23q-20 10 -27 11q-8 0 -10 -37l10 -4q4 4 10 14q6 2 54 -14q0 -18 0 -17 q-25 -4 -58 -16q-2 -6 -6 -17q-10 4 -27 7q0 -4 -10 -11l10 -10q-4 -55 -10 -70l-16 -6q-4 -6 -11.5 -12t-15.5 -6q-10 0 -29.5 6t-27.5 6t-17 -4q-6 -2 0 -20q-10 0 -23 -7.5t-20 -46.5q-27 -12 -63 -26q-14 2 -43 0l-4 -11q-29 2 -86 -6q-8 -12 -27 -30q-18 -4 -51 -17 q-12 -14 -45 -35q-43 2 -125 -2q-14 -6 -29 -10q-23 -8 -41 -6l-10 10q-12 4 -59 0q-59 -4 -58 -4q-18 6 -17 40t-3 34q35 33 78 43q20 -2 59 4v10q12 6 31 10h39q18 23 51 50q12 -6 27 -11q6 6 12 15q14 2 41 12q6 10 22 27q10 0 31 10q6 10 21 26q14 6 43.5 6.5t40 7.5 t14.5 25.5t8 24.5q20 4 49 37l4 4h11q2 12 12 39q16 6 37 24q-4 14 0 39q8 4 20 15q14 18 43 53q14 20 31 43q16 39 0 143q-6 16 -16 43q2 14 0 41q-6 12 -15 27q2 10 0 37q-10 8 -22 22q2 8 0 21q-10 6 -31 20q-6 12 -23 27q-16 6 -51 16q-12 8 -39 17q-6 0 -29.5 -8.5 t-27.5 -8.5q-10 2 -33 0q-6 -6 -20 -16q-23 2 -64 -4q-2 -8 -10 -23q-14 -10 -37 -20q-10 2 -26 0l-7 -10q-16 0 -53 -11v-16q-10 0 -31 -6q-2 -8 -10 -21v-6q-16 -6 -28.5 2t-14.5 10q18 -2 -59 -4q-33 0 -47 25q-2 4 -24.5 85t-22.5 85q6 2 16 10q8 23 6 70t4 67l10 11 q0 14 -8 32.5t-8 20.5q4 18 0 59l-10 4q-6 27 0 60q10 16 20 43q2 12 -4 41.5t-6 42.5q0 16 6 26q23 14 47 33q4 12 11 37q39 2 112 10l9 5q10 5 12 5z" />
<glyph unicode="6" horiz-adv-x="1232" d="M457 1638q2 0 38.5 -5t39.5 -7q6 -14 18 -41l18 -6q2 -2 -18 -12v-31q10 -2 31 -6q4 -12 6 -37h-12q-6 -16 -13 -66l-12 -6q-29 20 -41 62h-31q-6 -20 -12 -68v-18q-2 -2 -84 -13q-6 -6 -12 -16q2 -18 0 -49q-4 -8 -20.5 -14.5t-22.5 -10.5v-12q-10 -8 -23 -29 q2 -14 0 -36q-20 -10 -49 -37q-4 -6 -25 -78q10 -2 43 -6q2 -31 13 -78q20 18 59 49q8 -2 19 0q25 16 59 41q12 0 37 6q10 8 24 19q12 2 43 -3q16 -2 35 -4q12 4 49 7q14 -8 35 -19q33 4 90 0q10 -2 19.5 -18.5t11.5 -18.5q27 -2 78 -10q12 -12 31 -25q27 2 71 -6 q8 -4 9.5 -14t5.5 -17.5t25.5 -14.5t27.5 -15q0 -18 12 -53q10 -2 29 -13q2 -12 12 -37q16 -6 37 -16q-18 -61 -6 -96q10 -10 24 -25q4 -16 0 -67q6 -2 0 -4q-4 0 7 0q-10 -41 -19 -86q0 -4 6 -16l6 -13q-4 -18 -6 -62q0 -27 6 -65q0 -2 78 -49q-16 -16 -55 -47 q20 -37 18 -78q-31 -16 -53 -37q-12 -16 -31 -37q-10 0 -24 -6q2 -6 0 -16q-2 -6 -21.5 -27t-25.5 -23q-16 0 -49 -6q-8 -8 -25 -18q-8 2 -23 0q-29 -12 -79 -29q-27 0 -84 -6q-25 -12 -72 -25q-25 4 -78 7q-6 -2 -51 -15q-37 -12 -57 -10q-14 0 -70.5 20.5t-66 29.5 t-27.5 28q-20 8 -66 31q-12 8 -65 65v19q-8 0 -19 6q0 10 -6 24h-12q2 8 0 19q-14 6 -37 28q0 18 -6 56q-8 6 -17 18q2 10 0 29q-16 16 -36 49v24q-8 12 -19 35q-12 49 -18 103q-6 63 6 108q8 10 18 25q8 43 0 78q-8 10 -18 24q-4 33 6 78q8 10 18 25q-6 10 -6 43 q12 8 25 22q-6 18 -6 55l30 25q-2 0 -6 35q10 6 0 6q12 88 6 115q12 10 35 30q-18 61 -18 66h6q23 33 49 72q4 10 4 49q2 27 15 37q6 -2 18 0l10 10q33 6 62.5 10t40.5 27q0 16 6 49q8 10 35.5 27.5t44.5 19.5h22q9 8 25 18zM674 1632q6 -2 10 -10l-4 -8q-10 12 -6 18z M631 1602q27 -23 26 -29l-26 -37q-10 8 -23 25q2 20 6 12v16q7 5 17 13zM1090 946q-10 -41 -7 -18l-4 8q1 10 11 10zM608 940q-14 -2 -45 -17.5t-35 -25.5q2 -10 0 -25q-14 2 -47 -4q-6 -12 -18 -24l-19 12q-8 0 -19 -6t-15 -6v-37q-6 -2 -13 -12q-90 4 -108 -13 q-12 -8 -13 -26q2 -29 0 -33l-12 -6q-29 -76 -18 -121q0 -8 6 -25q8 0 24 -6q-14 -29 -18 -90q53 -16 102 -12l7 -17q-2 -4 -7 -6q-2 -10 0 -24q14 -2 37 -19q0 -10 6 -30q-6 0 -24 -7q0 -10 -6 -28q20 0 65 -6q12 -4 39 -37q31 -39 35 -41v22q-4 2 -14 0q-8 0 -9 2 q-2 0 11 4q37 14 59 15q55 0 68 -92h96q4 12 16 43q8 4 19 2l12 -2q12 2 53 18t43 23q8 14 8 52t3.5 48t17.5 25.5t14 25.5v6h13q2 16 -8.5 34t-10.5 20q-2 14 6 30q6 8 13 19q12 47 6 84q-14 18 -37 53v25q-8 29 -43 83q-20 33 -29 37h-12v19q-18 14 -49 47q0 10 -6 24 q-8 4 -69 15.5t-75 9.5z" />
<glyph unicode="7" horiz-adv-x="1101" d="M225 1638l25 -10q37 0 110 -10l11 -10q23 6 73 4l11 -10q59 -8 145 6q6 0 40 10t48 10q16 0 66.5 -6t70.5 -4q2 0 16.5 5t24.5 5q23 -10 52 -20q18 10 69 14q8 -6 21 -14h20q6 -8 16 -21q8 -4 18.5 -12t12.5 -35q4 -27 -6 -33l6 -14h-6q-6 -23 -25 -53q-14 -2 -32 -15 q4 -18 0 -47h-11q-39 -37 -40 -43l-7 -4h-10q4 -10 -4 -43q-6 0 -22 -4q-2 -25 -21 -74q-8 -8 -20 -26q2 -6 0 -15q-8 -4 -17 -10q4 -12 0 -33q-10 -2 -24 -4q-12 -33 -27 -73l-27 -31h-10v-43l-10 -14q4 -8 6 -21l-16 -10q2 -20 10 -60q-14 -10 -47 -30q12 -45 -4 -88 q-8 -6 -17 -17q2 -8 0 -26q-8 0 -16 -4q0 -27 -4 -58q-10 -4 -21 -16q-2 -6 -6 -37q0 -12 10.5 -23.5t10.5 -17.5q4 -14 -11 -37q4 -10 7 -41q-10 -8 -23 -20q-6 -29 23 -84q16 -25 14 -27q-8 -4 -12 -18q-6 -20 -9 -23q-8 -4 -16 -10q-2 -14 8 -31q8 -8 15 -16 q-2 -23 0 -47q4 -16 14 -17h6l-10 -4q6 -4 4 -10q-12 -6 -21.5 -49t-15.5 -51q-10 -18 -57 -48q-12 -8 -35 -20q-18 -2 -61.5 7t-49.5 18.5t-14 59.5t-6 71l10 47q-12 6 -6 43q14 18 27 47q-8 45 -11 125q16 27 37 84q-4 31 0 92q14 18 31 53q-2 33 6 94q16 14 37 52 q-4 18 0 53l14 14v10q-2 20 0 54q8 4 17 10q-2 8 0 20l10 7q10 18 26 57q0 16 11 51q8 10 20 27q16 39 21 94q2 29 -4 37q20 12 24 17t10 30q2 12 7 31q14 10 36 30q4 18 15 54l12 14q-2 0 -6 10q-6 20 -12.5 38.5t-44.5 14.5q-2 0 -26 -6t-38 -4l-35 10q-37 -4 -114 0 q-18 4 -37 11q-27 6 -47 6q-23 -2 -64 -6q-12 -8 -27 -17q-6 6 -24 6q-10 -12 -33 -30q-6 0 -14 -6q-12 -18 4 -52q-25 -25 -41 -57q4 -2 4 -10q0 -33 -20 -60q-8 -12 -41 -29.5t-54 -11.5q-4 10 -10 21l-37 31q-4 8 -14 59q-4 8 -8 18.5t-2 22.5q8 10 20 27v20q2 20 10 61 l11 13q-6 23 0 71q4 8 21 13.5t17 13.5t5 21q8 2 20 6q2 6 10 14q29 18 84 16z" />
<glyph unicode="8" horiz-adv-x="1415" d="M504 1638q55 8 82 0q8 -8 16 -18q29 -4 81 7t60 11l17 -12q27 6 82 -6q4 -8 10 -16q20 2 59 0q23 -18 70 -48q43 -2 117 -28q6 -12 22 -35q12 -4 29 -16q4 -41 12 -107q41 -2 47 -4t17 -31v-10q-20 -10 -47 -47q-4 -35 0 -82l6 -14q6 -15 6 -21l-12 -10q4 -18 0 -47 q-18 -12 -41 -35q0 -23 -1 -44t-28 -24q-6 0 -12 -3t-27.5 -20t-24.5 -26v-45h19q4 -8 10 -18q33 -31 94 -23q27 -51 64 -69q23 -6 51 -31v-23h-22q2 14 -7 19q-2 -12 -10 -41h-12v-35q16 2 51 6v-12q-8 -12 -19.5 -28.5t-11.5 -35.5q0 -8 2 -18q18 -8 41 -29q2 -18 6 -41 q55 12 64 -22v-19l18 -6q-29 -37 -69 -57q-2 6 -13 12q4 -8 13 -18q6 0 22 -6q0 -2 6 -23q-6 0 -12 -12q-16 2 -16 0q-14 12 -13 12l-6 -22h-16q10 -6 45 -41q-6 -8 -16 -23h-29q-6 -10 -18 -24q6 -2 6 -13q0 -20 -29 -73q-66 0 -73 -8.5t-15 -22.5q-8 0 -23 -4v-13 q-14 -6 -47 -22q-14 -12 -27.5 -22.5t-33.5 -10.5q-8 0 -14 -2q-6 -8 -17 -18q-16 -2 -53 -13q-16 -14 -47 -34q-18 -6 -51 -5q-39 2 -54 0l-10 -12q-16 -4 -65 -6q-49 -4 -64 0l-10 12q-23 -4 -53 -6q-6 8 -17 17q-29 6 -88 24q-10 10 -29 23q-27 6 -71 2q-47 -6 -68 -2 q-4 0 -16 11t-19 11h-6q0 14 -6 41q-4 10 -22.5 17.5t-24.5 11.5q-6 14 -23 41q-12 8 -28 24q-4 16 -19 45q-25 6 -63 31q-14 16 -23 51q-2 25 -12 76q-14 6 -6 6q8 -2 12 17q4 18 0 28q-8 8 -18 19q0 12 6 28.5t6 18.5q2 16 -12 69q29 14 59 35q-6 8 -6 17q12 6 16 41 q4 47 6.5 53t29 40t30.5 34h10v18q2 4 28.5 27.5t31.5 25.5q8 -2 22 0q-2 4 6 11q-31 27 -82 81q-4 12 -16 35q-16 2 -41 23q-10 18 -4 92q2 61 10 94q-4 10 6 23l-12 24q-6 33 12 80l11 6q4 18 18 54q12 12 29 34q-2 6 0 17q8 4 16 6q4 14 18 35q14 2 41 12q-2 8 0 16 q16 14 29 25q20 0 57 6q16 18 56 43q25 -2 73 2q7 6 17 12zM674 1487q-6 0 -23.5 -8.5t-29.5 -8.5q-4 0 -27 7.5t-37 3.5q-6 -8 -12 -17q-47 -23 -133 -6q-2 -2 -19 -16q4 -12 6 -25q-12 2 -34 0q-4 -10 -17 -28q-14 -2 -41 -13q-10 -23 -35 -51h-6q0 -10 -6 -29 q-2 -4 -29 -24q2 -16 7 -29l10 -6v-16h12q4 -10 12 -25q14 -6 41 -29q2 -16 17 -45l59 -47q8 -2 19.5 4t15.5 6q12 -31 29 -63q10 2 28 0q12 -10 35 -23q18 0 51 -6q12 -16 35 -41q12 -6 27 -6q31 0 80 31q2 6 10 16q18 0 53 6q6 8 16 17q12 -12 60 -17l4 7q12 4 31 16 q4 20 22 47q12 -2 35 0q4 8 12 16q8 0 29 7q4 8 16 24l7 6q2 2 -4.5 56.5t-6.5 58.5q-12 6 -35 18q-6 8 -18 23v18l35 23v16q-8 6 -17 13q2 14 0 41q-4 6 -22 12t-19.5 20.5t-5.5 48.5q-4 0 -12 11q-8 2 -22.5 4t-18.5 2t-21.5 -8.5t-23.5 -8.5l-18 11q-66 14 -121 6z M580 877v-17q-14 -8 -35 -18v-6q-14 0 -47 -5q-14 -14 -45 -34q-14 -2 -41 -13q-2 -2 -11.5 -12t-17.5 -10h-6q0 -14 -6 -41q-6 0 -19 -6q-4 -16 -16 -47q-8 8 -29 24q-10 -2 -28 -6l-54 -76q-2 -14 13.5 -29.5t15.5 -17.5q-4 -12 -6 -41q10 -6 18 -16q2 -16 -7 -30.5 t-11 -16.5q0 -27 -4 -82q31 -16 35 -17q8 0 16 58q23 0 22 0q8 -4 19 -17q-2 -14 6 -41q4 -6 20.5 -8t16.5 -8t4 -18q10 -20 51 -41v-6q25 2 70 -7l6 -28q8 2 29 12q8 -8 18 -12q-4 -6 -6 -13q14 -4 53 -4q37 0 51 4q12 12 41 25q18 2 47 -10.5t35 -14.5q51 -8 115 19 q51 20 65 47q0 8 5 22q8 2 18 7q0 10 6 28q-10 8 -24 23q82 14 81 39q0 2 -2 12v16q0 23 15 43q8 2 15 7.5t7 19.5q0 41 -22 61q-8 0 -16.5 9.5t-8.5 42t-4 47.5q-4 8 -20.5 13t-20.5 9q2 12 -6 31q-10 0 -29 4q-6 8 -18 19q-20 4 -70 16v12q-12 -4 -47 0q-14 12 -45 29 q-18 -2 -53 0q-16 6 -17 18v6q-23 -4 -65 0q-8 2 -16.5 20.5t-12.5 20.5q-12 1 -28 5zM330 506q23 0 24 -12q0 -12 -2 -23q-10 2 -28 6q4 29 6 29z" />
<glyph unicode="9" horiz-adv-x="1079" d="M543 1638q104 0 135 -10q2 -4 4 -10q16 -10 41 -16q6 4 20 6q51 -20 64 -27q16 -18 41 -41q10 2 31 0q0 -4 10 -10q2 -35 2 -37q4 -16 18 -31q6 -2 17 -10q-2 -10 0 -31q10 -18 24 -47v-24l11 -7q-4 -2 -5 -14q10 -8 25 -22q4 -6 4 -21q0 -18 -8 -14v-10q0 -16 37 -52 q-10 -8 -23 -22q-12 -29 -4 -76q4 -33 57 -47v-21q-16 -2 -10 -6q31 -18 21 -57q-8 -6 -17 -14h-4q2 -18 0 -52q-8 -6 -16 -16q-10 -18 6 -61q-4 -2 -33 -7q2 -2 -4 -10q10 -76 0 -123q-10 -10 -20 -26q2 -12 0 -37q-8 -4 -21 -14q-18 -37 -51 -109h-6q-4 -18 7 -44t11 -36 t-2 -18q-8 -4 -16 -11q2 -10 0 -26q-18 -20 -41 -51v-31q-12 -8 -30.5 -28.5t-20.5 -28.5v-15l-33 -26q4 -14 0 -41q-2 -8 -26.5 -23.5t-35.5 -17.5h-14q-12 -16 -37 -37h-20q-14 -10 -41 -27q-14 0 -43 -4q-6 -8 -21 -16q-33 -10 -88 -13q-74 -4 -98 -8q-74 -10 -76 -10 q-25 4 -57 20q-10 10 -31 27q-12 -2 -31 4l-6 10q27 14 47 41q29 39 99 58l10 10h72q33 2 94 6q14 6 35 14q23 -4 67 -4q33 4 47 21q0 12 11 31q6 2 14 6q0 8 6 20l25 -6l43 27q-4 37 -6.5 40t-20.5 17q8 0 27 4q0 23 10 72q16 20 61 74q8 -2 17 0q-2 16 0 45q4 33 14 53 q8 6 16 14q2 18 -7 74.5t-19 64.5q-27 25 -58 17q-20 -20 -51 -47q-14 0 -51 -11q-16 -10 -47 -24q-61 -14 -109 -6q-12 10 -36 20q-25 -2 -72 0q-6 10 -21 21h-20q-35 6 -84 28q-55 25 -72 45q-6 16 -24 52q-18 12 -47 47q0 18 -11 55h-10l-41 53q-2 14 -6 45q-6 8 -14 21 q-2 8 4 31q6 86 6 124q2 2 10 7q-4 29 0 86q8 16 21 43q-2 10 6 32.5t28 28.5q8 -2 21 0q2 8 6 27l10 4q2 12 11 37q10 4 20 14q-4 6 -4 20q18 25 41 58v10q14 0 47 6q27 14 72 31q10 -2 26 -6q23 8 56 16q29 -4 73 -6q4 2 29 9t33 7zM547 1561q-2 -6 -10 -31q-18 0 -62 -6 q-6 -6 -14 -15q-14 0 -43 -6q-6 -6 -15 -14q-14 2 -41 0l-43 -31q-2 -4 -2 -13t-2 -13l-26 -17q2 -12 -4 -35q-25 -8 -58 -26v-11q-10 -8 -20 -20q2 -12 0 -31q-10 -6 -21 -16q-2 -10 4.5 -20.5t6.5 -20.5l-17 -4q-2 -27 6 -78q10 -8 21 -20q4 -20 -2 -52t-4 -47 q4 -16 30 -30v-17q8 0 17 -6q2 -18 16 -55q8 -4 25 -11q2 -2 6 -9t10 -7h4v-14q16 -2 47 -6q8 -6 21 -17q23 -6 72 -24q4 -6 12 -17q29 4 82 21v10q8 4 23.5 11t40 3t44.5 2q6 8 15 17h12q0 12 10 35q18 8 41 20q2 14 10 47l11 6q-2 8 0 25q18 20 41 47q-2 29 0 78l10 14 q6 27 -4 74q-10 14 -23 41q2 20 -4 61q-23 16 -47 37q2 12 0 41q-29 45 -31 47q-8 0 -26 4q-12 20 -52 51q-25 14 -51 23v25h-16z" />
<glyph unicode=":" horiz-adv-x="526" d="M252 690q35 4 57 -16q2 -6 6 -12q18 -2 45 -11q0 -8 7 -22q4 0 8 -2l14 -23q8 -23 6 -35l-6 -6v-10q8 -8 6 -25q-8 -14 -16 -39v-12q-10 -6 -35 -18l-16 -10q0 -4 -2 -11q-12 -6 -56 -12q-51 -6 -65 0q-6 8 -19 23q-6 0 -16 4q-23 10 -31 24.5t-12 59.5q-6 47 2 63 q4 2 10 9t19 26q12 8 24 20v9q14 4 45 12q9 6 25 14zM276 309q6 0 15.5 -8t11.5 -8h16q4 -2 29 -17.5t27 -19.5q4 -14 14 -43l8 -6q2 -6 -3 -12.5t-5 -8.5q2 -12 0 -39q-4 0 -8 -3t-12 -19q0 -2 4 -12q-4 -2 -11 -7v-10q-4 0 -14 -2q-2 -4 -7 -7t-15 -7q-12 -10 -29 -21 q-4 -2 -51 -4t-86 29q-6 12 -19 31l-6 4q-4 10 -4 49t6 43q-2 2 -2 10q2 0 6 2q0 14 6 39q6 4 17.5 14.5t11.5 14.5v2q14 -2 47 -2l6 6q16 2 45 8q8 4 2 4z" />
<glyph unicode=";" horiz-adv-x="526" d="M252 690q35 4 57 -16q2 -6 6 -12q18 -2 45 -11q0 -8 7 -22q4 0 8 -2l14 -23q8 -23 6 -35l-6 -6v-10q8 -8 6 -25q-8 -14 -16 -39v-12q-10 -6 -35 -18l-16 -10q0 -4 -2 -11q-12 -6 -56 -12q-51 -6 -65 0q-6 8 -19 23q-6 0 -16 4q-23 10 -31 24.5t-12 59.5q-6 47 2 63 q4 2 10 9t19 26q12 8 24 20v9q14 4 45 12q9 6 25 14zM274 297q39 2 60 -25q2 -10 12 -26q10 -6 31 -21l26 -26v-6q8 0 19 -7l6 -12q-4 -10 -2 -16q8 -12 6 -17q-4 -14 -10 -49l-6 -6q4 -14 4 -45l-10 -27q-4 -16 0 -28v-6q-16 -16 -35 -33q-4 -8 0 -33q-25 -33 -33 -35h-6 q0 -8 -6 -22q-12 -25 -33 -37q-12 -2 -35 -10q-2 -6 -8 -17h-12q-4 -6 -13 -12q-12 -4 -51 6q-18 2 -47 12q-2 0 -9 42t-5 48l6 5q0 6 2 18h6q8 10 27 27v2h12l25 18q2 6 0 21q-4 4 -11 8q2 6 -2 20q-20 16 -47 45v13q-12 10 -31 32q0 8 -6 27q-2 2 -6 8q8 8 17 27 q-2 12 2 33q6 2 14 8q2 8 10 24q4 6 41 19q23 6 23 14q0 6 -9 12q4 2 11 6q8 -4 28 -4l4 9q16 14 41 16z" />
<glyph unicode="=" horiz-adv-x="987" d="M266 1075l13 -8q4 -2 22 4q-2 0 47 -4q23 2 72 4q20 -6 53 -12q35 8 107 8l8 -8q23 -4 61 2q49 10 51 10q14 0 32 -8t20 -8q23 2 71 -4q4 -2 33 -24.5t29 -27.5q-2 8 -4 -34q0 -6 -4 -17q-6 2 -19 0q-18 -14 -59 -35q14 2 -35 9q-37 4 -113 -9q-10 -2 -51 5q-8 2 -29 -5 q-12 2 -18 5q-14 0 -55 -5q-33 -2 -56 0q-18 4 -22 5q-2 0 -13.5 -4.5t-19.5 -4.5l-10 9q-18 2 -37 0q-12 -6 -27 -13q-18 4 -51 4q-2 0 -18.5 -6t-28.5 -4q-14 4 -39 10h-47q-14 8 -43 21q-6 0 -19.5 6t-15.5 20v9q6 20 4 34q0 6 -4 5v16q2 10 31 22q16 10 43 25 q57 12 115 4q10 -6 14 -4zM172 776q33 10 125 -14l12 -8q12 6 35 12q4 -2 33 -10t47 -2q8 10 22 22q8 2 22 -3l13 -5q12 4 35 4l8 -10q12 -2 26.5 4t16.5 6q18 4 41 -2q31 -8 35 -8q63 6 180 -4q8 -8 19 -17q8 2 20 0q4 -14 12 -30h19q2 -8 0 -21q-12 -6 -35 -18v-8 q-6 -16 -23.5 -22.5t-43.5 -10.5q-6 0 -19 4q-23 -6 -67 -14q8 0 -113 8q-2 0 -111 -8q-76 4 -219 8q-14 0 -54 -8.5t-63 -8.5q-16 0 -32 4q-8 2 -34 31t-28 39q2 -10 8 29q-4 6 -8 14q6 6 19 16v5q25 14 86 8q4 8 16 18zM936 729q12 -2 8 -12q-4 -8 -8 -15q-12 29 0 27z " />
<glyph unicode="?" horiz-adv-x="1191" d="M457 1640q16 2 44.5 -10t43.5 -12q6 0 71 8q55 8 84 2q35 -6 82 -33q37 -20 74 -41q27 -6 76 -30q14 -25 45 -68q10 -4 24 -12q12 -14 29 -35q-2 -6 0 -18q14 -10 41 -33q-4 -14 -12 -47q4 -2 12 -13q6 2 19 -16q2 -4 4 -6q-2 -12 -13 -51q8 -4 19 -13q0 -8 4 -18 q10 0 31 -4q-4 -4 -19 -12q2 -18 0 -17h-35q2 -23 -6 -65l-28 -23q-2 -6 6 -57q-43 -20 -49 -43q-14 -51 -21 -62q-12 -6 -29 -22v-12h-12q0 -10 -4 -23q-12 0 -41 -6q-14 -12 -41 -29q-8 6 -29 0q-2 -12 -6 -28q-6 0 -13 -8.5t-15 -20.5q-16 -12 -33 -23q-6 -6 -19 -41 q-12 -2 -53 0v-28q14 -6 29 -13v-18q-23 -16 -51 -45v-35q-4 -14 -43 -46t-56 -36q-68 -12 -92 29q0 8 -6 24q-8 4 -18 11q-18 74 0 157q4 14 24 56q18 35 19 51v4q0 10 4 16l41 45h16q6 14 25 41q25 14 57 41l10 41q59 -4 76 17q0 14 12 34q23 2 58 13q23 12 39 69.5 t12 92.5q-4 16 -10 34q-10 -2 -25 0q-16 8 -51 23q6 14 22 41q-18 12 -39 35v10q-23 14 -112 20q-86 6 -125 -2l-6 -12q-25 -2 -70 -16q-2 -10 -6 -25q-12 -8 -39 -29q-2 -20 10 -51q8 0 19 -6v-47q16 -8 51 -29h-29q-6 -57 -6 -63q2 -12 8 -23.5t6 -15.5q0 -8 -36 -25 q-20 -6 -64 -28q-10 -12 -35 -29q-57 -12 -110 0q-4 2 -50.5 36t-48.5 40q2 18 -6 57q-10 8 -22 23q2 23 0 63q-4 16 -9 33q-6 27 -4 43q16 25 35 70q12 43 0 51q10 8 25 24q2 10 10 35h12v10q0 2 33 32t37 32q23 2 70 18q18 25 51 58q27 0 76 6q16 12 51 28zM764 1149 q6 0 30.5 -11.5t14.5 -11.5h-51q2 23 6 23zM618 344q33 0 45.5 -12.5t24.5 -23.5t29 -27q8 -18 28 -58q6 -2 10.5 -8t4.5 -20q0 -80 -25 -111q-20 -8 -53 -35q-4 -10 -16 -29q-8 2 -23 0q-14 -8 -35 -16q-6 0 -76 10q-45 8 -65 19q-37 16 -41 47q2 6 -4 22q-16 8 -39 41 q-10 43 25 105q33 51 67 74q6 0 23 6l6 12q28 6 114 4z" />
<glyph unicode="A" horiz-adv-x="1570" d="M735 1640h72q8 -2 12 -6q53 -18 113 -53v-37q4 -20 55 -41q0 -8 -6 -24q-20 -14 -55 -35q27 -37 30 -51q4 -16 -6 -64q16 -8 47 -31v-16q-6 -2 -22 -6q8 -43 29 -115q2 -2 36 -31q0 -25 13 -65l41 -23q-6 -16 -13 -30q-18 -6 -34 -13v-18q6 -14 34 -35h6q-2 -16 -6 -55 l13 -10q-2 -16 0 -43q14 -23 36 -60q41 4 84 -12v-12q-25 -12 -49 -29q27 -20 31 -37q4 -31 6 -59l12 -19q12 -43 -6 -96q8 -4 19 -18v-23q-8 -4 -19 -12q-6 -51 31 -109q8 -12 34.5 -23.5t32 -19.5t6.5 -27.5t5 -31.5l12 -6l6 -17q12 -8 39 -7t39 -5q6 -14 23 -37 q10 0 30 -6q0 -6 7 -16l30 -6v-13h10q2 -78 0 -84q-8 -8 -22 -24q-23 -25 -39 -25q-43 2 -45 0q-20 -12 -61 -29q-10 -2 -132 13q-20 2 -47.5 -6.5t-48.5 -6.5q-23 8 -59 19q-25 -4 -72 0q-14 8 -37 16q-6 0 -25.5 -8t-21.5 -8q-8 12 -31 35l-24 6q10 35 0 65q-16 2 -47 0 q-12 -8 -31 -18q-12 -2 -27.5 3t-25.5 9q-6 -2 -31 -6q10 -33 10 -35q0 -10 -32 -24q-12 -8 -31 -19q-27 0 -84 -6q-72 -10 -66 -10q-84 4 -71 4q-2 0 -17.5 -5t-19.5 -5q-16 8 -47 16q-29 -4 -78 -6q-29 6 -66 12q-20 -2 -53 0q-2 2 -30.5 23.5t-30.5 25.5q-10 12 -17 56 q-6 47 3.5 69.5t62.5 30.5q4 0 76 4q39 4 61 19l37 61q-4 12 -6 29q2 10 22.5 22t25.5 22.5t1 28.5q-6 18 -2 29q43 53 47 53h6q2 6 0 74q-2 2 -7 4t-5 6q2 10 20.5 23.5t22.5 19.5q-2 8 0 19q8 0 18 6q4 27 -12 39q-12 6 -25 14q2 8 0 19q14 6 31 18q8 10 15.5 41t15.5 39 t22 20q27 41 31 72q-6 18 -6 61l8 23q6 16 4 31q-2 0 -8 7t-4 17q8 4 16 13q2 2 6 28q-6 23 -6 72q14 10 31 31q-4 6 -6 24q20 12 49 41q8 25 2 68q-6 47 -2 63q6 12 16 31q2 -4 4.5 5t2.5 13q-2 10 -22.5 25.5t-20.5 26.5q0 18 36 45q12 -2 31 12q0 14 6 47zM801 1042 q-16 -6 -53 -43q4 -6 4 -18q8 -2 24 -12q-20 -6 -47 -29q-4 -10 0 -20q6 -10 6 -17q0 -8 -24 -22q-2 -23 -13 -62q-43 6 -34 6q0 -25 0 -22h41q0 6 12 16q43 -63 35 -90q-4 -2 -17 -10q-4 -10 0 -19q2 -6 13 -6q12 8 28 19h60q10 25 24 71q-12 12 -41 35q-12 2 -37 12 q0 8 -6 19q31 -10 49 -10q31 0 31 30q0 12 -10 51.5t-10 53.5q-23 14 -23 12q0 2 6 49zM686 412q-31 -4 -41 -60q-25 0 -24 0h-29v-41q-10 -6 -19 -12q4 -6 7 -18q25 -6 6 -7q80 6 112 -36q0 -10 21 -27q14 2 45 -2q6 -10 18 -25q12 -2 31 -6l23 19q0 8 6 24h12q6 2 42 36 t42 42q-6 14 -12 29.5t-23 17.5q-12 -2 -31 0l-12 43q-10 8 -79.5 17.5t-94.5 5.5z" />
<glyph unicode="B" horiz-adv-x="1521" d="M672 1628q18 2 40.5 -10t30.5 -12q18 -2 38 8t32 10q16 -10 37 -18q20 -4 54 2t52 4q14 -10 37 -25q23 0 76 -12q14 -10 43 -23h29q4 -8 12 -18q16 0 49 -6q6 -14 23 -41q8 -12 53 -43q0 -4 6 -17q-12 -6 -12 -24q0 -45 31 -53h34q4 -6 6 -25q-8 -20 -18 -22q-6 -2 6 -7 q8 -27 47 -49q0 -23 0 -22q0 -2 -11 -15.5t-11 -15.5q4 -2 6 -16q12 -12 12 -13q-10 -4 -24 -12q-2 -25 -13 -66q-12 -16 -24 -40q-2 -27 14 -41.5t10 -36.5q-10 -6 -24 -19q-18 -27 -6 -94l12 -12q-2 -27 6 -78q18 -14 43 -41q0 -20 6 -53q14 -10 29 -25q-6 -16 -6 -47 q20 -10 43 -43q0 -2 -13 -47q-8 0 -18 -6v-113q41 -6 66 -35q-14 -18 -29 -43v-41h-31h-12q4 6 6 23l-12 18q2 -20 12 -65q-8 0 -18 -6q2 -6 0 -17q16 -2 43 -12q0 -12 6 -25q-14 -10 -37 -24q-12 2 -29 0q-6 -29 -37 -70q-31 -2 -88 -18q-6 -10 -18 -25q-8 2 -19 0 q-2 -6 -6 -16q-14 -16 -59 -31q-23 0 -66 -6q-20 -8 -53 -18q-102 -12 -197 0q-2 2 -21 8t-32 4l-12 -12q-8 -2 -24 2l-17 4q-45 -4 -131 -6q-57 -4 -172 0q-2 2 -13.5 7t-17.5 5l-35 -12q-20 6 -67 6q-4 -8 -10 -17q-16 -6 -48 0q-23 14 -53 35q-16 6 -56 7t-59 18 q-6 2 -11 9t-5 21q0 25 14 60q10 23 21 45q12 4 41 6q12 0 49 6q6 8 18 19q20 4 64 2q47 -4 65 -2q6 0 84 30q-2 25 0 66q8 4 19 10q2 23 -6 45q-6 16 -13 33q2 12 0 47q-20 27 -12 31q14 8 17 78q0 47 2 94q8 20 18 47q6 49 6 102q-12 23 -12 35q10 8 6 16q-4 14 0 27 q8 4 16 10q2 23 -15 47.5t-19 30.5q-4 20 2 49q4 20 10 41q-2 -12 -12 78q6 47 6 135q-4 33 -25 49q-6 6 19 41q-4 10 -17 27q-6 6 -20 4q-16 -4 -23 0q-6 8 -18 23q-16 8 -49 24v6q-31 -6 -88 -6q-94 12 -119 41q-14 18 -15 62q0 43 15 63q4 6 59 18q94 23 98 23 q14 0 24.5 -6t21.5 -17q14 -4 31.5 1.5t21.5 5.5q10 -8 24 -19q53 -20 95 -12q29 23 65 49q20 4 68.5 -2t56.5 -4q29 10 31 10zM778 1415q-14 -8 -35 -18q-12 4 -30 6q-14 -6 -35 -19q0 -29 0 -28q-33 -12 -78 -31q-4 -51 10 -88l13 -6v-31q-12 -8 -29 -22q2 -10 0 -25 q25 -18 53 -47q-2 -16 0 -43q10 -8 25 -29q0 -20 12 -47h16q16 -12 43 -24q14 -2 39 7t31 11q25 -6 78 -6l24 12l68 12q31 10 45 35q2 12 12 29q33 8 82 18v41q12 10 25 25q8 35 0 65l-6 13q-14 8 -35 28q0 23 -12 60q-8 10 -38 16t-40 14q-2 16 -23 41v7l-12 6 q-29 -2 -84 0q-2 0 -13.5 6t-17.5 6q-2 0 -18.5 -9t-22.5 -9q-35 24 -47 24zM850 1391q14 -16 0 -13q-6 2 -6 8q2 3 6 5zM838 748q-10 -2 -31 -7v-10q-4 -2 -20.5 4t-20.5 6q-8 2 -26.5 -7t-20.5 -9q-18 -4 -39 3t-27 7q-29 0 -28 -20q0 -8 22 -39q-4 -6 -12 -17h-25 q2 0 -10 -12q4 -27 6 -18q14 -8 41 -23h-37q-6 -55 25 -96q23 18 22 18h33v-24q-8 -4 -19.5 -12.5t-15.5 -8.5q-2 0 -9 8.5t-17 12.5h-19q-6 -8 -22 -23v-24q8 0 17 -4t18 -2l8 6t10 6l12 -19q4 -31 -6 -47q-14 -4 -31 -30q12 -18 13 -31q0 -10 -6 -17q27 -23 61 -47 q23 0 70 -6q6 -8 12 -18q14 -2 35 -12q10 -10 24 -23q14 -4 64 -8q51 -4 63 2q8 16 29 35q20 -2 59 0q2 10 11 24q18 16 43 25q2 0 41 6q23 4 30 16v19q4 18 12.5 31.5t8.5 15.5q0 6 -51 31q0 23 0 22h49q-2 -6 6 -16q6 39 6 119q-6 2 -6 16q-20 4 -41 8t-27 16q4 23 0 66 q-10 10 -22 31q2 8 0 22q0 2 -37 19v-19q-6 -2 -16 -12l-25 37q-14 8 -41 2q-31 -6 -47 -2q-8 0 -43 15.5t-53 13.5zM1446 248q12 -6 12 -12q-14 8 -12 12z" />
<glyph unicode="C" horiz-adv-x="1282" d="M645 1638q41 4 74 -10q14 -20 35 -47q10 2 28 0q12 -12 41 -27q2 -2 17 11q10 2 22 2q14 0 48 -5.5t51 -5.5q16 0 28 3v12q10 0 29 6q2 10 10 22q35 10 72 -20.5t43 -116.5h45q4 -10 6 -22q8 -18 6 -25q-4 -25 -21.5 -25.5t-35.5 -3.5q-2 -6 -10 -16q2 -35 0 -102l-13 -6 q-23 -33 -6 -80q-6 -2 -16 -13q8 -10 25.5 -19t37.5 -9h13.5h9.5q16 0 22 -62q-4 -8 -12 -18h-29q8 -12 29 -39q2 0 -29 4q0 -8 -6 -29q-12 -6 -26 -28q-2 -2 0 -43q0 -20 -25 -31q-12 -4 -29 -4q-53 0 -86 27q-8 23 -32 57q-12 2 -29 12q-8 10 -8 37t-4 37l-29 18 q2 18 0 58l-17 26q-10 2 -22 6q-8 12 -4 33q6 23 4 31q-14 10 -29 29q-6 27 11 34q-4 18 -5 17q-27 14 -69 51q-4 12 -17 29q-20 2 -63 6q-12 -4 -29 -6q0 6 -12 12v-23q-2 2 -10 -6q-18 0 -58 6q-6 0 -24.5 10.5t-32.5 10.5q-8 0 -17.5 -4t-20.5 -30t-9 -38q8 -10 18 -24 q-14 -2 -57 -11l-10 -12q-29 4 -76 -6q-4 -2 -20.5 -48t-14.5 -61l7 -12q8 -12 5 -20l-12 -7q-10 -16 -22 -34q2 -8 0 -23q-14 -10 -29 -22q-18 -39 0 -99q-10 -6 -23 -16v-12q12 -10 29 -29q-33 -70 -29 -166q8 -25 17 -57q-4 -16 -4 -58q0 -31 10 -57q8 -4 16 -10 q0 -23 7 -64q16 -25 34 -69q-4 -29 -6 -80q6 0 11.5 -6t13.5 -4l20 16q10 2 48 -8t44 -15q4 -14 19 -34q16 -10 60 -15.5t61 -13.5q12 -16 32 -35q2 0 35 6q23 4 41 21q29 23 33 26q33 4 86 29v16q18 12 41 29q0 8 4 23q14 10 31 28q4 20 0 43q-6 35 -6 43q16 4 45 23v18 q0 4 19.5 44t21.5 40q14 2 45 13q6 10 16 22q8 4 21 4q57 0 84 -33q2 -10 11 -32.5t40 -46.5q-6 -37 -8 -41.5t-21 -26.5q6 -8 23 -25q-4 -14 -9 -14q-2 0 -4 4q2 -18 0 -18q-10 2 -26 -4q41 -10 78 -25q6 -8 6 -14q0 -16 -41 -29q-70 -23 -74 -25q0 -55 -29 -108 q-25 6 -26 6l-19 -29q-8 0 -22 -6q-12 -35 -41 -80q-31 -27 -84 -34q-16 2 -41 0q-12 -18 -41 -41q-18 -6 -51 -2q-39 4 -45 2q-10 0 -39 -12.5t-47 -10.5q-27 14 -74 35q-18 2 -51 12q-12 12 -35 29q-14 -4 -51 0v4q-23 8 -60 29l-51 51v12q-27 12 -68 51q-2 16 -12 47 q-12 8 -28 29v10q-12 4 -33 17q-2 12 -13 41q-12 12 -28 41q-14 57 -6 114q-4 14 -7 4v41q-14 8 -32 29v35q-16 18 -35 57q6 18 10 62l-10 34q-4 23 3 64t3 63q-8 20 -6 29q8 8 16 23q2 18 13 61l12 6q-2 14 0 41q10 12 20 35q-2 27 0 80q8 12 19 33q-2 31 6 86q27 27 61 69 q-2 14 0 39q4 14 24.5 21.5t24 9.5t19.5 37q12 27 29 28q8 0 24 2l6 13q12 -4 35 0q8 4 21 41q12 31 37 37q20 -2 67 2q12 8 29 16q25 -4 76 -6q26 12 67 22zM377 1233q6 -2 13 -9t7 -12q-4 -2 -10 -2q-10 13 -10 23zM1219 535q25 -4 24 -29q0 -6 -8 -6q-12 2 -19.5 11 t-5.5 17q1 9 9 7z" />
<glyph unicode="D" horiz-adv-x="1572" d="M244 1638q12 2 30 -4q10 -4 21 -8q27 -4 67 4q49 6 64 6q18 0 35 -4l10 -12q14 0 50 6t44 6q25 -6 82 -6q10 6 25 12q31 2 63 -6q16 -10 47 -22q37 4 107 6q23 -10 59 -25q31 -2 94 -18q12 -8 35 -23q18 0 45 -18q-2 -8 2 -29q8 -4 17 -12q2 -8 9 -20.5t29.5 -18.5 t32.5 -12v-13q8 -8 17 -18q-4 -8 -6 -29q18 -14 43 -41q0 -20 10 -47q20 -2 53 -12q-2 -4 6 -12q-12 -49 -12 -51h6q2 -12 12 -37q10 -6 23 -17q4 -12 -4 -26q-4 -6 -6 -15q-2 -2 16 -78v-16l60 -24q0 -8 -7 -23q-8 -2 -28 -6q-12 -68 0 -107h10q-4 -4 -4 -16q8 -8 16 -18 q2 -14 -6 -34t-6 -30t20.5 -23.5t20.5 -17.5v-24l-29 -7q4 -63 0 -75h-12q-8 -12 -23 -35q18 -6 54 -13l6 -18q-25 -6 -72 -16v-25q18 -8 60 -22q-8 -39 -29 -82l-12 6q-4 -2 16 -19q-2 -10 -4 -28q-43 4 -78 -6v-31q8 -4 18 -10q14 2 35 6q8 -8 25 -19v-28q-10 -8 -25 -19 q-8 2 -22 0q0 -16 4 -53q-10 0 -29 -6q-8 -12 -29 -29q-8 2 -18 0q-14 -41 -47 -88q-20 2 -57 0l-13 -12q-25 -6 -65 -10q-31 0 -94 -7q-14 -10 -41 -24q-104 -29 -164 -17q-8 8 -23 17q-55 12 -100 6q-20 -10 -53 -23q-20 2 -54 5q-29 -10 -28 -11q-25 8 -54 17 q-10 2 -29.5 -4.5t-23.5 -6.5q-23 2 -69 0q-14 -8 -35 -18q-35 -8 -72 0q-20 2 -57 0q-66 -10 -84 0q-2 10 -10 29q-10 4 -25 12v12q-8 4 -16 13q-25 37 -25 73q0 18 5 28.5t36 37.5q14 6 41 0l35 -6q16 2 73 8q49 6 74 4q47 -4 41 -6q4 8 12 18q10 0 29 6q12 8 21.5 36 t9.5 40q-2 23 -12 60l-13 12q-4 25 8 51q14 35 17 41q2 18 -6 41q-6 16 -13 31q-6 39 0 69q8 10 19 25q4 23 -6.5 59.5t-5.5 57.5q8 10 18 22q2 20 -10.5 58t-7.5 61q10 12 22 35q16 45 6 100q-8 14 -16 35q-8 45 0 88q-2 8 0 18q-27 51 -25 64q2 10 14.5 28.5t12.5 34.5 q0 12 -2 25q-14 14 -37 41q-4 12 -10 59q-74 0 -107 6l-12 13q-41 10 -70 10q-16 0 -40.5 -9t-34.5 -9q-12 0 -25.5 8t-26 54t-20.5 50q-6 4 12 35q18 23 74 25q72 2 90 12q8 10 31 22zM631 1421q-8 -2 -19 -6v-53q-4 -4 -16 -12q2 -16 0 -52l-12 -30h-13q2 -10 0 -29 q6 -2 25 -6q4 -86 0 -111q-4 -6 -8 -10q-6 -10 -4 -20q14 -12 28 -35q2 -6 0 -56q-2 -49 -8 -55t-14 -12q2 -10 0 -29q39 -10 69 -24v-13q-14 -16 -47 -34l6 -7q2 -12 0 -34q-10 -6 -22 -19v-22q14 -10 47 -41q16 25 29 26q4 0 41 -8q-4 -14 -13 -31q-12 0 -34 -6 q-6 -6 -19 -16q-10 -2 -29 -6q0 -8 -8 -45q-6 -29 -4 -37q8 -6 17 -13q14 -14 8 -40q-12 -14 -25 -29q-2 -12 4 -37q8 -31 8 -35q8 2 25 0l4 -12q12 0 37 -10q12 -20 29 -41v-25q-31 -4 -70 -16q-2 -10 0 -25q8 -12 23 -35q53 4 41 6q12 -8 28 -18q20 2 60 0q6 0 38.5 -15.5 t49.5 -13.5l12 13q12 -2 35 0v10q10 8 28 18q14 0 43 13q2 6 11 22q33 43 47 101q35 8 41 12q16 8 24 28q-2 12 6 35q8 2 23 13q4 6 0 28q8 31 6 31q6 0 16.5 6t13.5 28.5t5 28.5q14 14 29 41q12 51 -11 66q2 10 7 29q2 12 4 34q-4 18 -4 31q14 41 0 41q18 0 -7 6q6 49 7 51 l-25 41l6 25h12q-2 10 0 29l-30 24q20 51 6 99q-23 29 -47 71q-2 12 18 53q-10 6 -24 23q4 10 6 25q-8 0 -23 4q-20 23 -71 59v6q-14 0 -46 6q-33 29 -71 60q-12 -10 -29 -19q-53 -10 -153 -6q-14 0 -42 16.5t-47 16.5q-8 0 -14 -6.5t-14 -20.5zM735 975h31q-2 -8 -5 -20.5 t-26 -14.5q-25 -4 -26 12q0 6 4 17q8 0 22 6zM735 811q16 -6 37 -25q-2 -6 0 -16h-31q-29 23 -28 23q-1 4 22 18zM1534 745q8 2 10 -4q0 -4 -4 -10t-10 -8q-10 -2 -10 2q0 16 14 20zM1446 670q2 -10 0 -41h-16q6 10 16 41zM766 459q6 -4 -6 -25q2 25 6 25zM1370 422l12 -4 q-6 4 -12 4z" />
<glyph unicode="E" horiz-adv-x="1470" d="M1040 1638q57 4 72 0q12 -16 41 -34q45 0 125 -19q8 -12 25 -31q8 2 18 0v-88h22q0 2 -12 7l6 53h-6q2 0 -6 24q12 -6 16.5 -7t14.5 -5v-25h12q8 -2 23.5 -25.5t23.5 -27.5q6 2 19 0q2 -10 10 -24q-8 -8 -17 -23v-61q-2 -14 -59 -35v-60l-8 -12q-6 -12 -4 -22 q6 -6 12 -19q12 0 35 -4q-10 -31 -23 -65q-8 0 -18 -7q4 -18 6 -53q-2 -6 -25.5 -34.5t-27.5 -30.5q-12 -4 -25 -4q-49 0 -59 32q2 12 0 37q-49 14 -53 17q-20 10 -21 36q0 10 2 23q2 6 13.5 29.5t11.5 29.5q-43 68 -90 138q-23 6 -50 30q0 8 -5 21.5t-40 32.5v4 q-14 4 -45 -4l-39 -13q-14 2 -41 0l-18 -18q-20 -4 -59 31q-10 -6 -23 -13q-23 -31 -6 -96q-6 2 -18 -6l-11 24q-12 2 -16 -4q-6 -12 -14 -14q-23 2 -66 0q-10 -4 -22 -10q16 -55 4 -84q-4 -10 -23.5 -24.5t-23.5 -22.5q-2 -23 -13 -66q10 -4 31 -12q8 -6 18 -12h29v-11 q-2 -8 -12 -18q-10 2 -29 0q0 -8 -6 -25h-18q-6 -53 -7 -71q-6 -2 -16 -11q14 -10 10 -12q27 0 84 6h25q-6 0 41 -6q0 6 6 19q4 0 12 4q-2 10 0 24l29 6q0 12 6 41q8 4 18 13q-4 12 7 34q12 6 34 19q4 18 20.5 47t59.5 29t99 -29q4 -4 6 -16q-6 -4 -13 -7q0 -51 13 -59 q12 0 35 -6q6 -8 18 -19q4 12 18 37q16 -10 47 -24v-25h-77q2 -14 0 -41q-6 -2 -19 -6q10 0 4 -35q-4 -43 -4 -47q6 -4 13 -6q4 -10 12 -25q8 -2 31 -6q-4 -14 -13 -53q-4 -14 -12 -29q-16 0 -47 -6q-4 -8 -19 -18q6 -27 7 -58q0 -43 -25 -139q2 -12 -6 -35l-29 -18 q-23 -2 -35 6q-4 12 -12 31q-18 10 -47 41q-2 29 -18 84q-16 8 -41 35q-2 18 -19 47q-16 10 -53 6q-33 -2 -47 -12q-6 -8 -12 -17q-6 -2 -60 4q-18 -31 -20 -33q-16 -10 -33 -20l-6 -10h-6q-4 -14 -5 -27q0 -39 70 -92q-33 -16 -72 -43q2 -25 -6 -66q4 -10 13.5 -20t31.5 -8 q29 4 39 0q0 -4 13 -13q0 -29 0 -28q-8 -4 -25 -19h-12q-10 -16 -23 -34h-24v-72q43 -2 112 -19q6 -14 6 -24q12 -23 25 -23q20 14 47 29q18 4 38.5 -5t37.5 -5q8 0 30.5 14t47.5 14l45 -6q33 -4 49 0q14 12 37 25q12 -8 53 0q14 8 29.5 35.5t23.5 36.5q20 12 47 53 q4 14 -3 37.5t-3 38.5q12 8 31 24q0 12 6 35l12 6q-6 10 -6 41q8 10 17 25v30l12 4q8 20 24 56h23q8 -8 78 -66l6 -137q-8 -8 -19 -25q16 -18 37 -47q-33 -41 -30 -59l12 -12q-2 -16 6 -47l16 -7v-59q4 -25 19 -70q-14 -6 -35 -18q0 -23 -12 -53q-6 -6 -65.5 -26.5 t-71.5 -20.5q-51 -8 -101 0q-2 0 -17.5 6t-23.5 4q-14 -8 -37 -17q-35 -6 -59 0l-10 11q-8 2 -23.5 -7.5t-19.5 -9.5q-16 -4 -35 -4q-16 0 -74 8q-45 6 -76 2q-18 -10 -47 -18q-12 0 -38.5 8t-36.5 10q-35 -8 -119 -12q-41 8 -109 19q-2 0 -26.5 -6.5t-26.5 -6.5 q-176 -8 -248 29q-4 8 -12 18q-6 2 -25 7q-6 10 -12 22q0 2 18 72q100 4 78 6l17 -12q55 -4 84 0l18 18q27 0 82 12q4 8 12 19q10 -2 31 4q2 8 10 18q-6 33 -12 64q-10 41 -4 67q0 2 16 43q10 29 6 52q-14 23 -28 65q12 35 18 119q-2 6 -10 26.5t-8 26.5q8 16 18 37 q6 33 0 76l-12 18q-6 27 -6 94q4 14 6 50l-12 10q2 25 0 71q-8 16 -19 41q0 12 9.5 28.5t9.5 21.5q0 10 -7 22l-6 12v72l-12 6q8 20 12 70q0 10 -20.5 51t-26.5 45l-23 1q-22 1 -36 -1q-55 -8 -72 0q-6 10 -22 23q-16 4 -41 -2.5t-37 -1.5q-18 4 -32.5 28.5t-14.5 52.5 q0 29 19.5 44.5t64.5 15.5q12 0 36 -2h39q35 0 60 8q10 10 28 25q10 2 37 -7q23 2 72 7q4 0 68 -7q49 -4 73 0q20 6 54 17v6q23 -2 59 -6q20 10 47 18q23 2 52.5 -7t31.5 -11q14 -2 33 4l20 8q12 -2 31 -6q20 6 47 12q53 2 141 6zM756 1098l14 -33q0 -10 -14 -8q0 -2 -2 -6 q-2 2 -5.5 7t-5.5 5q7 15 13 35zM1184 866q6 -2 -6 -18q2 20 6 18z" />
<glyph unicode="F" horiz-adv-x="1447" d="M760 1638q23 2 77 -7t70 -11q20 0 60.5 7t60.5 7q12 0 27 -2q43 -6 116 -35q10 -8 25 -18q6 2 16 0l25 -35q2 -2 41 -16q25 -10 27 -31q0 -10 2 -35q18 -25 47 -71l-11 -23q-39 0 -65 -25q0 -29 6 -88q0 -6 29 -47q-14 0 -17 -34q0 -31 5.5 -50.5t23.5 -35t25 -21.5 q18 -29 22 -47q-2 -10 0 -25q20 -12 41 -28v-19q-29 -8 -57 -18q-35 -12 -49 -29q2 -6 0 -16q-12 -33 -41 -47v-7q-12 -8 -43 -8q-31 2 -45 8q-6 10 -23 23q6 -2 -47 -6q-6 -2 -12 -10q-2 -8 6 -19q4 -23 -12 -31l-29 -10v-24q-4 -2 -6 -6l22 -11q-2 -10 0 -24 q-59 0 -106 -17q14 -18 30 -47l-12 -24q2 -20 0 -60q-14 -12 -35 -35q14 -33 15 -43q0 -4 -10.5 -11t-13.5 -19.5t-9 -26.5q-10 -6 -25 -6q-4 0 -63 18q-23 0 -60 13v4q-12 8 -12 24q-2 27 -4 35q-8 8 -18 25h-6q-2 6 0 47q4 84 0 94q-6 0 -19 6q-2 10 -10 29q-16 14 -70 14 l-78 4q-8 -6 -18 -18q-2 -18 -6 -47q-14 -4 -17 -6q-12 -16 -12 -29q0 -8 8.5 -21.5t9.5 -23.5t1 -57q0 -51 -4.5 -57.5t-12.5 -16.5t-14 -19q20 -2 18 -59q-6 -57 0 -82q10 -33 54 -59q8 -8 16 -19q12 4 35 6l6 -12q18 0 34.5 7t24.5 5q23 -16 66 -34q14 4 53 6l53 -25 q27 -12 88 -63q-20 -14 -59 -41v-13q-2 -8 -25.5 -20t-27.5 -21v-12q-6 -4 -62 -4q-53 0 -70.5 6t-37.5 17q-27 4 -68 -2q-47 -6 -63 -5q-63 2 -47 7q-16 -12 -48 -25q-18 -2 -53 13.5t-47 15.5q-10 2 -21.5 -4.5t-19.5 -6.5q-6 -2 -30.5 4.5t-28.5 6.5q-35 -4 -99 0 q-14 12 -36 30q-25 10 -76 41q0 14 22 41v13q53 6 131 16l58 4q55 2 82 4q6 -2 14 -2q-29 -2 -147 -10q10 6 10 4q8 -6 24 -16q14 18 35 41h25q23 4 31 17t17 27.5t21 30.5q4 16 0 64q-6 47 -12 61q-8 6 -16 17q-8 29 -6 77q4 55 0 76l-13 25q-4 29 11.5 88t13.5 76l-12 12 q-12 33 -7 82q2 10 21 65q18 47 14 72q-8 6 -16 23q-6 23 0 59l10 12q10 35 6 70q-10 25 -22 72v75q-6 2 -13 7v18q6 0 13 35q-12 4 -6 82q-23 4 -84 -2q-59 -6 -93 2q-14 12 -36 30q-12 -2 -35 0q-6 4 -19 11q0 31 0 30q29 6 95 23v12q12 -4 43 -6q25 4 47 59q86 -6 94 -6 q6 0 43 11q31 10 53 10q10 0 19.5 -2t31 -16.5t41.5 -14.5q8 4 23 6h12q-4 25 0 29q6 4 19 12q98 -16 129 -12q18 12 53 24zM729 1438l-4 -13q-29 -10 -78 -10q-41 -2 -59 6l-6 11q6 0 -47 -7q-2 -4 -5 -16h5q6 -2 30 -47q-20 -16 -47 -47q-4 -8 -9 -48t-3 -46 q10 -10 24 -31q2 -14 -6 -46t-6 -48q2 -43 12 -60q6 -2 17 -10v-65l41 -15q29 -12 47 -12q10 0 18 4v4q12 8 14.5 16.5t4.5 8.5q10 -2 35 6q8 4 14 31.5t8 31.5t43 31q4 14 -2 36.5t-4 33.5q6 10 16 24q4 8 13 60q70 27 86 26q12 0 20 -4v-12q20 -8 47 -35v-12q16 -8 47 -29 q6 -8 19 -22q-18 -2 -13 -7h29q2 -8 12 -18q0 -6 -18 -18q2 -4 0 -17q10 0 31 -6q-2 16 0 47q14 10 35 29q2 6 -4.5 65.5t-8.5 65.5q-6 14 -24 20q-31 12 -37 16.5t-16.5 28t-16.5 29.5q-6 -2 -16 0q-12 10 -31 23q-10 0 -29 6q-6 8 -12 18q-33 -4 -94 0q-4 0 -31 15 q-18 12 -41 8zM1071 1020q2 -12 4 -25.5t21 -15.5q6 -2 6 8q0 6 -2 17q-2 4 -4 10q-9 0 -25 6zM1018 973q-12 -10 -12 -17q0 -4 6 -11t6 -13v-19l18 -6q4 10 19 60q-12 0 -37 6zM1024 891q2 -18 4 -35q0 -6 21 -25q12 0 6 7q8 -6 8 4q2 6 -2 18v12q-12 5 -37 19z" />
<glyph unicode="G" horiz-adv-x="1419" d="M618 1638q74 8 111 -49q0 -10 12 -24q27 4 84 0q16 -16 43 -37q10 2 31 0v12q8 6 31 25l-6 18q18 0 49 6q-6 4 10 19q4 4 6 12q18 0 49 -12l25 -90h6q-2 -18 0 -50q6 -2 12 -6q2 -12 13 -43q-10 -8 -31 -24q-4 6 -6 -13q12 -6 24 -18q-2 -6 0 -18q-12 -8 -37 -31 q8 -25 37 -60v-18l-24 -18q20 -45 18 -62l-6 -9t-6 -15q14 -10 31 -31q-2 -8 0 -25q-16 -8 -50 -28v-13q-2 -6 -21 -21.5t-28 -15.5q-16 -2 -29.5 11.5t-23.5 25.5q-25 4 -55 23q0 16 -6 49q-14 16 -31 43v18q-14 8 -31 31q8 10 12 43q-18 29 -43 72q0 10 -6 37l-18 18 q2 8 0 19h-12q-6 10 -17 24q-18 12 -78 35q-66 25 -88 20q-18 -12 -49 -24q-14 2 -41 0q-6 -8 -18 -25q-20 -8 -62 -30q-18 -18 -61 -50h-6q0 -14 -6 -43q-6 0 -19 -6q-6 -20 -18 -47h-29q6 -4 29 -6q-2 -14 -6 -37q-10 -2 -23 -6q-2 -23 -6 -68q-16 -20 -31 -49 q4 -10 6 -41q-12 -14 -24 -37q4 -14 6 -49l-12 -18v-68q0 -4 -7.5 -25.5t-5.5 -27.5q10 -12 25 -31q4 -23 -1 -68.5t1 -66.5q8 -8 18 -24q-4 -20 0 -60q16 -14 41 -37q-4 -18 -16 -55q2 -4 47 -43q4 -10 0 -20q-6 -14 -6 -23q10 -6 18 -18q8 -35 37 -91q12 -10 31 -10 q10 0 35.5 5t44.5 5q16 -31 37 -49q10 8 28 19q10 2 48 -6.5t42.5 -13.5t8.5 -17q12 2 30 0q-2 14 -12 55q8 6 19 12q14 -2 43 0q4 2 25.5 23.5t21.5 26.5q0 27 12 71h12q20 8 31 62q-2 25 6 86l7 5t5 13q-10 6 -24 19q2 6 0 16q-8 12 -25 31q-29 -4 -57 -11q-43 -4 -70 5 q-14 16 -43 36q-10 0 -31 7q0 8 -6 18q-2 2 -18 6v19q14 8 37 24q2 12 12 31q23 14 74 14q61 -2 78 4q6 8 12 19q10 0 31 6q14 12 43 29q14 2 34 -11q10 -6 21 -12q20 -4 59 8t62 8q37 -14 98 -28q27 8 86 12q10 -4 20.5 -19.5t14.5 -17.5q23 -2 67 -12q27 -8 86 -55 q-4 -8 -12 -19q-10 0 -24 -6q-8 -25 -37 -61q-25 0 -80 -7q-29 -6 -96 -18l6 -16l-31 -19q2 -8 0 -18q-10 -4 -25 -13q-4 -10 -6 -32q-2 -25 6 -29h13l18 -6q-10 -8 -10 -19q0 -8 13.5 -22t15.5 -21q4 -23 -9 -41q-8 -10 -16 -18q2 10 6 -43q-6 -23 -6 -74l18 -18 q-2 -10 0 -31q-18 -8 -49 -24q-2 -6 -6 -19q12 -6 12 -16q0 -16 -10 -17q-2 2 -2 4q-8 -14 -24 -30h-13q2 -8 0 -19q-2 -4 -17 -25.5t-20 -23.5q-14 -6 -30 -6t-72 31v12q-14 6 -63 6t-66 -6q-14 -18 -53 -43q-23 -6 -62 -6q-35 0 -105.5 6t-94.5 6l-21 -4q-20 -4 -28 -2 q-14 4 -32 36t-30 38q-33 0 -84 12q-12 6 -24 84q-41 10 -48 12q-31 12 -31.5 27.5t-6.5 52.5q-12 6 -25 19q-4 14 2 30q4 16 -2 31q-20 12 -43 53q8 12 12 43q-8 14 -18 31q6 14 6 49q-8 12 -19 31q6 14 7 53q-6 12 -19 31h-12v24q6 2 18 7v18q-33 29 -22 68q18 78 31.5 83 t3.5 7q-8 4 -16.5 31.5t-8.5 35.5q2 2 12.5 21.5t5.5 34.5q-23 29 -18 30q14 4 33.5 75t19.5 112q0 16 -4 20q18 16 43 49q4 25 19 72q4 6 24 31q14 16 15 41q0 8 7 13t21 13q-2 14 6 43q6 -2 19 0q2 10 12 25q10 0 29 6q18 27 61 72h19q8 10 18 18q14 4 35 0q25 -6 33 -6 q12 0 24 6q4 4 25 49q25 -6 53 -12q8 0 30.5 9t30.5 9zM649 182l6 -18q-4 18 -6 18z" />
<glyph unicode="H" horiz-adv-x="1495" d="M920 1638q8 0 23 -11t20 -13q23 -4 53.5 5t52.5 7q23 -8 59 -18q45 6 129 6q16 -2 78 -35q16 -4 37 -18q2 -4 23 -107q-4 -6 -13 -18q-4 -4 -22 -4q-2 0 -20.5 10t-32.5 6l-19 -23h-18q-6 -12 -17 -24q-8 4 -24 6q-6 -20 0 -25q-37 -25 -47 -53q-23 -57 -6 -119l12 -10 q0 -18 -6 -33q-12 -20 -13 -22q2 -8 0 -23q-10 -10 -24 -30q-2 -16 43 -48q-25 -92 -25 -88l25 -30q0 -12 10 -35q12 -4 25 -12q-2 -8 0 -25q-10 -6 -25 -16q0 -2 -4 -47l-18 -7q-6 -14 -7 -96q0 -82 7 -106q8 -6 18 -19q2 -23 4 -41v-12l-10 -12q0 6 10 -23v-18 q53 -8 78 -6v-41q-27 -4 -78 -13q-12 -45 -10 -53q8 -10 16 -22v-19q12 -16 49 -18h60q-2 -4 4 -19q-6 -2 -17 -28h-12v-19q33 -6 94 -22q18 -14 50 -37q-14 -31 -13 -35l41 -31v-16q-14 -4 -47 -19q-14 -12 -37 -30q-61 -25 -147 -23q-18 2 -35 4q-29 4 -43 2 q-8 -6 -23 -12q-37 10 -106 18q-25 -8 -59 -18q-88 -6 -191 41q-4 8 -6 18q4 4 22 41h13q0 14 6 43q6 10 35.5 37t43 31t40.5 14q4 8 12 19q27 6 66 28q4 8 9 43t3 47q-12 8 -25 23q2 10 0 25q12 4 31 24q-2 45 -6 107q-18 8 -43 28q0 10 -6 25q10 10 30 22h19q2 18 10 50 l12 6q-4 6 -6 22q-27 2 -69 13q-10 4 -18.5 32.5t-37.5 32.5q-16 2 -51 -6t-51 -8q-12 0 -21 2l-24 24q-12 -2 -35 0q-57 4 -78 0q-12 -10 -31 -24h-16q-4 -8 -12 -19q-16 0 -47 -6q-8 -6 -25 -16q12 -35 0 -78q-14 0 -41 6l-6 12q-8 -4 -31 -6q0 -25 0 -24l-10 -13 q4 -10 6 -41q-10 -18 -18 -40q0 -10 6 -16.5t6 -8.5q-2 -10 0 -29q-10 -2 -16 -6l-27 -18v-23q16 -12 37 -37q4 -18 -5 -60t-20 -58q-2 2 -12 18q-31 -10 -47 -10q-20 0 -59 28q2 10 6 64l-19 6q-2 20 6.5 43t6.5 41q0 2 -6.5 23.5t-6.5 35.5q8 25 19 66q0 49 18 141 q-14 0 0 31q-2 6 6 18q4 2 -15.5 43t-21.5 52q-4 31 0 65q6 57 7 60q14 2 6 6q-2 2 -11.5 45t-7.5 55l13 12q4 14 -7 60q2 14 0 22q10 -2 11 17q0 18 -11 20q4 16 13 47q10 41 6 72v29q-27 27 -60 53q-2 2 -41 -6q14 2 -18 6q-8 -2 -25 -6l-10 12q-39 0 -102 18q-6 6 -2 17 q4 12 2 12q10 2 31 6q10 12 28 25q35 -4 103 0q6 14 22 12v-12q37 -6 43 -6v6q2 2 4 12q4 0 8 2q-31 4 -49 4q2 33 0 35q8 4 25 12h29q10 -18 18 -37q41 10 59 7q8 -2 23 -7q12 10 31 19q10 2 34 -6q31 -43 54 -35q6 8 12 18q12 -4 31 -6l6 17q66 0 65 0q14 -12 41 -35 q2 -12 0 -31q-8 -2 -18 -4q0 -12 -6 -37h-47q-12 -14 -41 -35h-37q-14 -6 -47 -18q-8 -37 -35 -72q8 -14 16 -35q-2 -14 0 -37q14 -4 31 -16q-2 -8 0 -24q4 -10 41 -48q-10 -16 -16 -28q-23 2 -37 2q-25 0 -25 -8q0 -10 37 -37v-17q-12 -6 -31 -18q0 -4 -4 -37 q16 -10 41 -22q14 -2 23.5 7t11.5 11q35 6 65 -18q8 -6 11.5 -23.5t5.5 -21t55 -33.5l41 -6h66q10 18 34 43q20 4 35 4q14 0 37 -6.5t43 -4.5q16 8 41 17q16 0 47 6q4 14 13 37q8 2 18 10q-2 20 0 55q0 6 12 52q8 31 4 61l-12 16q-4 27 0 78q2 2 8 23.5t4 29.5 q-10 10 -22 31v29q-14 2 -49 6q2 8 -4 18v-12q-74 -20 -97 -12q-6 10 -18 24q-6 0 -23 7q-33 18 -47 100q10 6 23 18v17q10 2 24 6q0 8 6 18q62 47 89 47zM541 1608q10 0 10 -9q0 -8 -10 -8t-11 8q1 9 11 9zM707 1554q6 -4 12 -10l-12 -53h-31q0 2 -17 10q12 35 15.5 39 t32.5 14zM659 991q0 -8 7 -18l18 -8l-8 2h-17q-6 14 0 24zM463 731q8 -41 6 -41l10 2t25 2q0 4 4 17q2 8 -10 14q-10 0 -35 6zM487 344q16 0 30.5 -17.5t17.5 -17.5l18 6l-4 2q0 4 20 -2q0 -10 6 -24h-40v-12q-6 -8 -19 -17q-20 -6 -43.5 8.5t-23.5 32.5q0 16 20 28.5 t18 12.5zM375 262q8 0 23.5 -9t17.5 -9q12 2 35 0q6 -8 12 -19q18 2 53 0q8 -8 19 -18q14 -2 77 12q12 -29 41 -76q8 -6 29 -18q10 -16 10 -49q2 -37 -10 -47q-8 0 -29 -4q-12 -8 -30 -19q-33 -6 -125 6l-16 6q-17 7 -19 7l-25 -13q-53 -8 -106 -6q-53 -6 -154 0 q-23 4 -55 35q-45 37 -51 43q31 16 34 22q12 10 25 37q18 -45 53 -45q16 0 47 8q2 8 7 19q-8 2 -35 6l-6 23q20 0 59 12q8 16 29 41q12 2 37 12q2 8 10 19q10 0 30 6q1 8 13 18zM438 154q4 -8 13 -29q8 0 18 -6v24q-11 3 -31 11z" />
<glyph unicode="I" horiz-adv-x="1099" d="M309 1638q10 0 26.5 -8t18.5 -8q20 -4 41 -4q25 0 72 5t72 5q18 0 32.5 -1t57.5 -15.5t63 -14.5q20 8 47 19q59 6 97 0q12 -8 31.5 -16.5t47.5 -8.5q12 0 36 2t34 2q45 0 70 -30q6 -6 16 -19q4 -12 4 -26q0 -66 -33 -82q-16 2 -45 -6q-6 -2 -14 -24t-33 -28 q-31 -8 -76 -4q-57 4 -67 4q-12 0 -44 -12t-46 -10q-8 8 -19 16q-4 2 -6 2h-8q0 -2 8 -6q-10 0 -30 -16q-8 -14 -5 -37q4 -31 2 -45q-2 -2 -18 -12q2 -8 0 -23q14 -14 41 -39q-14 -14 -29 -35q4 -12 -6 -51l-6 -12h6v-23q2 -4 16.5 -19.5t12.5 -31.5h-6q-2 -16 -11 -41 l-12 -6q0 -12 -6 -33q-12 -8 -29 -28q-4 -23 17 -44q14 -12 30 -26v-23q-8 -2 -28 -6l-6 -16q12 -10 10 -12l-23 -17q-2 -18 13 -35q16 -23 16 -28q4 -20 -5 -49t-9 -41q0 -8 4 -19q0 -2 33 -35q-18 -61 6 -102q16 -8 35 -25q-4 -6 0 -28q8 -4 16 -11q6 -29 -5 -30.5 t-24 -3.5q-2 -8 -4 -23q10 -10 23 -29q-2 -12 6 -34h10q6 -8 18.5 -14.5t47.5 -6.5q35 2 14 4q31 -8 82 -18q14 6 51 6q6 0 61.5 -29.5t59.5 -35t16 -95.5q2 -8 0 -22q-8 -14 -30 -19q-33 -8 -39 -10q-8 -12 -23 -25q-14 2 -57 0q-4 0 -25.5 -8t-38.5 -8q-18 6 -45 12 q-88 10 -188 11q4 0 -111 -5q-72 -4 -112 5q-20 10 -54 22q-23 4 -51 -6q-37 -16 -39 -16q-53 -10 -127 18q-18 10 -86 29q-16 53 -10 73q2 8 48 57.5t54 51.5q18 4 43 4q27 0 74 -8t62 -8q12 6 28 12q20 -4 58 -6q12 4 16 18q4 25 6 29q16 12 35 33v41q2 12 4 12v10 q0 10 -8 15.5t-8 7.5q-4 20 9 48.5t13 37.5q2 14 -10 32q-6 10 -11 22.5t-5 27.5q0 20 14 59q10 33 6 59q0 2 -16 29q-2 12 5 31l7 20q12 98 4 156h6q-2 8 -6 29q8 10 18 22q0 6 -6 17l-6 12q-2 14 4 39l8 24q-6 8 -6 29l29 29q-31 49 -31 108q0 12 4 21.5t15 23.5 q-6 6 -23 19q-10 33 -39 73h-6v13q-10 0 -35 6q-6 4 -16 16q-12 0 -40 -11t-42 -11q-25 0 -68 10l-12 12q-53 -2 -160 12q-6 6 -16 17h-12q-4 2 -4 12q0 33 20 68q8 4 18 12q-2 12 7 33l32 28q29 29 68 29q8 0 43 -4q29 -2 51 0q18 8 45 16z" />
<glyph unicode="J" horiz-adv-x="1312" d="M809 1638q-2 0 53 -6q18 2 49 0l19 -12q18 4 67 0q14 -12 47 -31q37 -10 86 -12q53 6 127 6q8 -8 19 -18l6 -6q2 -6 0 -48h-31q-4 -8 -11 -15t-73 -21q-20 -4 -30 -7q-2 4 -7 7l-12 -13q-27 -4 -54.5 -8t-37.5 -22q2 -12 0 -37q-16 -10 -35 -35q-4 -14 4.5 -35.5 t8.5 -26.5q-8 -20 -13 -49l7 -15q8 -15 6 -26q-12 -8 -25 -24q-2 -6 8 -22l10 -15q2 -23 -12 -43q-8 -47 12 -53v-13l-18 -43q12 -10 35 -30q-14 -16 -29 -43q-4 -14 6 -27.5t13 -13.5q-4 -23 -7 -56q8 -6 17 -12v-31q-16 -20 -41 -47h-6q-2 -4 12 -12q-8 -18 -25 -55 q12 -12 43 -37v-31l-18 -6q-18 -119 -18 -121q2 0 30 -6q-2 -4 6 -12q-6 -10 -18 -43l-12 -4v-31q-4 -23 -43 -62q4 -41 0 -61h-13q-2 -12 -12 -41q4 -18 0 -25q-14 -10 -37 -30q-8 -27 -41 -68v-6q-27 -2 -80 -16q-12 -16 -36 -37h-23q-8 -12 -25 -25q-10 -2 -69.5 -5 t-65.5 -1l-16 12q-25 2 -66 -2q-51 -4 -67 -4q-29 0 -49 6q-4 8 -13 19q-16 -2 -49 6q-10 20 -45 45q-10 -2 -33 2q-12 6 -46 45t-37 53.5t-9 42.5q-8 2 -18 13q-20 33 -25 53q6 18 6 61q-10 16 -24 43q-2 18 8 37q4 12 10 23q2 8 -5 16l-7 8q2 -10 18 74q16 78 37 102 q16 10 55 56q2 10 7 24q6 0 24 4q4 8 12 19q12 4 35 12q39 16 72 16q39 0 68 -22q16 -10 67 -102h12q2 -10 -5 -27l-7 -17q6 -10 6 -43q-20 -23 -49 -59q-4 -29 -31 -67q-12 2 -34 0l-7 -13q-10 0 -30 -6q-10 -8 -31 -22q10 -39 -12 -68q14 -4 43 -18q4 -8 12 -19 q14 0 43 -12l-6 -12q0 -2 8 -6.5t8 -12.5v-6q12 2 31 0q8 -6 18 -16q16 -18 43 -37q12 -4 76 10t70 20q8 20 31 54q20 2 61 12q10 6 16 33q10 35 13 41l37 30q2 8 2 15q0 14 -16.5 40.5t-10.5 53.5q12 8 25 25q-4 8 -7 30l13 6q-4 43 -6.5 48.5t-24.5 23.5q14 66 -6 115 q6 4 37 6v92q-10 10 -25 31v16q14 12 31 31q2 10 2 22q0 25 -39 101q55 68 49 114l-24 43q8 43 6 134q0 4 -13.5 19t-11.5 34q8 14 19 37q-6 10 -19 24h-24q-16 8 -41 19q-14 -4 -50 -6q-20 8 -49 18q-12 -2 -37 0q-10 12 -28 31q-10 -2 -25 0q-2 0 -4 22q0 6 -2 8 q8 8 18 17q-4 8 -6 18q6 10 19 25q2 0 22 -19q8 0 24.5 12.5t18.5 12.5q27 -6 86 -6l11 6q10 6 20 6l10 -12q61 -16 80 -12q10 16 37 36z" />
<glyph unicode="K" horiz-adv-x="1589" d="M1100 1638q47 6 78 0q12 -8 30 -18q12 0 28.5 6t18.5 6q12 0 22.5 -6t20.5 -6q41 10 91 18v-6q6 -8 16 -18h37q18 2 24 -17q10 -35 0 -90q-2 -8 -6 -6v-12q-51 -2 -102 -6q-8 -10 -25 -25q-16 2 -47 0q-14 -10 -37 -22q-18 0 -53 -6q-4 -12 -18 -31q-10 -2 -29 -13 q-2 -10 -19 -26q-4 2 -18 -2l-35 -43q-4 -14 3 -37t7 -31q0 -12 -4 -20l-6 -6q-76 -27 -76 -62q0 -6 -2 -10q-16 -10 -36 -31q4 -12 0 -37q-20 -8 -48 -34q2 -14 0 -41q-16 -10 -36 -31q2 -14 0 -43q-8 -4 -17 -10v-13q-18 -2 -43 -6q4 -45 25 -115q12 -4 28 -16 q-4 -8 -4 -31q10 -6 23 -18q0 -8 6 -29q14 -12 37 -37q2 -12 12 -34q20 -14 47 -37q0 -16 6 -47q10 -12 23 -31v-12q14 -2 55 -11q-2 -18 0 -49q2 -10 78 -53q0 -12 6 -31q-4 -10 -6 -22q2 -12 37 -48t50 -44.5t46 -6.5q39 4 51 2q10 -8 25 -18q16 2 47 0q8 -10 25 -25 q37 -4 96 -34l16 -31q2 -12 6 -35q4 -4 7 -10q-2 -12 -7 -14q-12 2 -28 0v-19l-31 -22q-29 2 -84 0q-10 -12 -22 -25q-18 -4 -45 10.5t-39 14.5q-20 -8 -50 -19q-25 -4 -268 6q-43 -8 -131 -6l-6 12q-12 0 -37 7l-22 22q-31 -16 -66 -29l-6 -12q-14 4 -43 6q-12 -4 -25 -8 q-18 -6 -35 -4l-6 12q-6 4 -47 6q-80 4 -102 0q-12 -8 -31 -18q-47 -8 -113 6l-18 12q-25 2 -78 -4q-59 -8 -80 -8q-37 0 -57 12q-2 8 -12.5 20.5t-22.5 27.5q-8 39 60 53v18q-4 -2 -13 6q-14 -2 -47 -6q-2 4 -6 13q10 2 23 6q8 23 36 53q14 6 48 6h36q27 -2 39 -2 q76 0 86 39q4 12 -6 56t-18 50q4 8 12 25q4 16 -2 42t-4 42q2 4 13 24.5t11 40.5q0 14 -16 54q-12 33 -8 59q12 14 24 37q10 47 -6 100q-8 8 -18 19q-25 53 -23 55q4 4 35 53q2 8 -5 21l-7 14q-12 80 31 186q-8 8 -25 29q14 14 31 43q0 6 -12.5 36t-12.5 36q6 20 12 47 q-10 10 -24 31q2 16 0 47q-8 23 -37 25.5t-57 5.5q-18 12 -56 28q-27 0 -84 6q-27 8 -26 62q0 43 16 71l10 5q4 10 13 18q25 8 59 4q41 -6 55 -4l14 7q13 7 21 5q18 -14 55 -30q12 0 32 12t28 12q16 2 36.5 -7t22.5 -11q12 0 31.5 9t28.5 9l18 -12q35 0 107 -6q2 0 32 -9 q25 -6 39 -2q14 10 37 23q39 14 96 0q-2 0 7 -29q-12 -6 -16.5 -9t-8.5 -15q8 2 25 0q4 -8 10 -25h12l43 25q-2 14 21 32q12 -2 38 3q6 12 19 24q14 6 33 6q14 0 43.5 -4t44.5 -4q16 0 28 2q7 6 17 12zM735 1579q-14 -6 -10 -23q2 -18 16 -14v12q8 4 13 13q4 10 -2 10 q-4 0 -11 -4v6h-6zM807 1489q-14 -8 -41 -25v-6q-25 -6 -102 0q-29 -8 -84 -22q-16 0 -48 -6q-35 -18 -71 -97q-18 2 -19 0q0 -2 2 -36.5t5 -41.5q10 -8 24 -24q-23 -37 -18 -53q16 -12 37 -35l-13 -25q-2 -12 0 -47v-18h-12v-25h-6q-4 -25 11 -85t13 -93q6 -4 17 -12 q16 -23 18 -23q16 -2 31 -2q-2 18 6 53q14 8 33 33q-2 8 2 29q6 12 31 28h18v7q6 8 16 18q8 -2 19 0q6 16 18 47h13q-2 10 0 25l53 24q4 25 24 72q14 4 35 16q27 41 25 127q61 18 61 58q0 25 -33 80q0 10 -10 28h-18q-14 13 -37 31zM664 645q4 -8 6 -22q-2 -23 -35 -43 q-25 -14 -47.5 -29.5t-42.5 -71.5l-13 -6q2 -8 0 -18q-16 -10 -34 -31q-4 -8 4 -23q4 -16 -4 -34q-6 -25 -6 -27t2 -15.5t4 -19.5h10l-10 -18q6 -4 16 -13q6 -20 25 -47h36q16 -10 41 -24q14 -2 31 -2q16 0 64 6q37 6 61 2l12 -12q43 -10 78 0q10 14 29 30q14 2 43 13 q16 8 16 24q0 20 -36.5 64.5t-41.5 54.5q-2 14 5.5 31.5t1.5 34.5q-16 16 -41 47q-4 27 -25 71q-10 14 -37 19q-35 8 -47 12q-27 18 -28 26.5t-7 20.5q-12 -2 -30 0z" />
<glyph unicode="L" horiz-adv-x="1392" d="M520 1638q25 0 72 -25.5t63 -27.5q57 -6 82 0q8 12 25 25q12 2 76.5 -1t74.5 -5q53 -12 60 -35q-4 -16 -6 -37q6 -2 12 -10h29q0 -4 12 -6v-35q-20 -2 -66 -13q-25 -18 -75 -41q-41 0 -123 -6l-19 -12q-31 -2 -94 -12v-11q-6 -6 -16 -18q4 -8 6 -35q-6 -4 -12 -18 q14 -4 28 -10q-2 -12 0 -31q-20 -10 -57 -41q18 -41 16 -59q-8 -27 -6 -35q2 -2 37 -35q-2 -6 -6 -23q-12 -6 -25 -12q-14 -33 0 -88q12 -10 25 -29q0 -10 -13 -28l-12 -19q2 -14 0 -41q12 0 35 -6q25 -14 66 -94q-16 -10 -54 -31v-16q10 -6 25 -19q4 -14 10 -116h-10v-13 l-37 -28q8 -6 19 -19q-2 -20 6 -63l12 -6q29 -47 22 -95q2 0 7 13q16 -4 47 -6q-2 -10 -6 -41q-51 -8 -52 -21q0 -8 17 -27q8 -2 22 -12q2 -14 13 -35h18q10 -14 29 -30q16 2 41 6l6 12q2 0 12 -6l10 -6q8 0 66 12q35 0 100 12q6 12 31 25q8 0 20 4q6 20 19 59q20 2 59 13 q2 12 0 35q-8 6 -18 16v12q2 0 6 19q20 72 18 88q-6 14 -12 30q-8 25 -6 45l7 17q7 18 5 31q-10 10 -24 22l24 12v13q8 4 17 12q-2 27 0 76q10 6 24 16q33 27 58 27q33 0 71 -56q16 -25 17 -32q-6 -18 -11 -37q-12 -14 -6 -12q4 0 12 -23q-2 -20 0 -59q0 -2 10.5 -20.5 t6.5 -33.5q-10 -8 -23 -22q-2 -10 4.5 -22.5t6.5 -14.5q2 -4 -5 -70q2 -4 5 -18l-11 -4q-10 -16 -6 -53q8 -20 17 -48q-2 -8 -5 -30q8 -16 17 -41v-35q-14 -6 -29 -16q2 -23 -6 -60l-123 -71q-23 -4 -57 4q-45 8 -49 8q-39 2 -95 -6l-22 -11q-35 -6 -102 -2q-72 6 -105 2 q-25 -10 -63 -18q-6 0 -24.5 6t-22.5 6q-86 -6 -259 -6q-14 0 -68 6t-73 6q-16 0 -53 -11t-57 -11q-12 0 -25 4l-12 12q-6 -2 -17 0q-4 2 -18 41q-18 49 6 101h12q4 8 11 16q12 -4 36 -6q4 8 11 18q16 10 71 6q59 -4 47 -6q10 2 54 17l4 12q35 10 67 20q41 14 45 39 q2 8 -7 25.5t-10 23t-7 33.5q8 4 12 47q-2 0 -11 49.5t-5 61.5q8 10 16 25q4 16 -2 47l-10 41q-2 29 6 67q12 53 12 55q2 25 -2 64q-6 27 -10 55q4 35 0 105q-4 6 -10 18q6 25 10 57l-10 19q-2 18 4 46t6 30q10 94 -10 166q-8 8 -19 22q-6 25 -18 70q-8 2 -29 6q-6 8 -18 18 q-18 6 -39 6q-16 0 -61.5 -10t-75.5 -8q-18 2 -76 25l-6 10q-14 4 -35 18q2 8 0 19q0 -4 -3 2t-3 8q-2 35 24.5 65.5t87.5 34.5q72 -8 164 -12v12q4 12 35 25q23 6 68 3t67 1l6 12q10 4 35 6z" />
<glyph unicode="M" horiz-adv-x="1566" d="M1130 1638q16 2 45 -5t33 -7q45 10 133 12q16 -8 43 -18l25 12q10 2 49 -24q8 -2 23 -13l6 -12q2 -25 6 -84q-20 -6 -59 -24v-13q-16 -8 -17.5 -18t-7.5 -19q-14 -18 -49 -34l-12 -7q2 -20 0 -55q-8 -8 -19 -18q-2 -10 -7 -58.5t-5 -50.5l37 -37q-2 -4 -19 -18 q10 -35 -6 -115q10 -6 25 -18l-25 -49q4 -16 6 -37q8 -2 7 -9.5t6 -9.5q-2 -4 -13 -16q-4 -16 2 -37.5t4 -36.5l-18 -18q-2 -10 5 -25.5t7 -17.5q-6 -14 -6 -47q8 -6 19 -13q18 -33 12 -36q-6 -16 -25 -44l6 -30q4 0 13 -6q-27 -102 -27 -156q0 -12 5 -16t16 -9 q12 -68 12 -79q0 -10 -10.5 -26.5t-8.5 -35.5q4 -18 39 -37q27 -12 54 -22q57 -29 69 -43q20 -23 27 -78l-12 -6q6 0 4 -8q0 -8 -4 -11q-10 -2 -31 -6q0 -8 -5 -15t-61 -22q4 0 -67 6q-35 -6 -109 -6l-31 13q-2 0 -18 -6.5t-18 -6.5q-33 2 -91 0l-12 -12q-27 -6 -67 6 q-23 8 -40.5 35t-31.5 49q-10 -4 -11 2t-1 10q6 0 24 7q6 23 0 24q-23 -18 -24 -18q-2 0 -31 6q0 -14 -12 -41q-14 -6 -31 -19q0 -4 6 -43q-4 -2 -12 -12q-33 -4 -121 6q-10 88 -68 127q18 39 19 43v6q-10 4 -9 44t-3 47q-10 10 -23 24q-4 8 -4 16q0 10 11 28t9 36 q-12 27 -28 72q2 16 0 49q-8 16 -25 55l-12 6q-4 18 2 49t4 48q-10 31 -31 96l-12 12q0 29 -6 86q-4 20 -43 121q0 10 -12 24q-4 2 6 19q2 0 12 6q-2 27 -12 96q-12 31 -35 92l-12 7v41l-13 6q-10 29 6 92q-14 10 -61 31q-2 -4 -18 -19q8 -31 18 -110h31q-10 -4 -31 -7 q2 -6 -6 -18q6 -10 12 -23q-6 -4 -4 -28q0 -20 7 -26.5t22 -18.5q-14 -20 -31 -49q0 -16 -6 -48l-12 -12q6 -47 -7 -133l-30 -18q-4 -10 -4 -17q0 -4 22.5 -32.5t42.5 -43.5q-8 -31 -12 -65q2 -6 43 -31q-8 -12 -19 -30q-2 -14 6.5 -41t8.5 -39q0 -8 -2 -17h-13q0 -8 -6 -24 q12 -6 13 -6q0 -8 6 -43q-2 -2 -6 -9q-4 -8 0 -10q-18 -20 -13 -24q4 -2 13 -25q6 -51 -23 -68q-39 -25 -45 -34q-4 -8 0 -31q2 -4 -6 -12v-7q47 -12 92 -24q61 -18 78 -35q4 -4 0 -6l-8 -4q0 -2 2 -2q16 -10 18 -27v-35q39 -6 86 -18q4 -2 25 -66q-8 -2 -25 -6 q-4 -8 -12 -18h-62q-47 -2 -139 -13l-31 -12l-18 12q-25 -2 -72 0l-18 13q-47 -4 -139 0q-18 6 -50 18q0 2 -12 31q43 33 105 47q0 6 -7 18q14 27 41 68q8 10 93 59v13q-33 25 -68 61q-2 12 11.5 33.5t13.5 28.5q-8 31 -13 102l13 25q-2 16 0 47q8 10 18 24q4 25 -8 49 q-16 35 -17 37q-8 45 7 66l12 6q10 45 0 98l-19 19v6q0 -6 7 2q4 10 0 10v10q0 25 -7 74q-6 6 -12 31q4 18 12 65q-2 88 -12 207q-8 12 -18 31q4 39 -13 115q-27 45 -108 61q-8 -2 -25 0q-4 6 -18 18v31q8 4 18 12q23 -4 68 0q10 16 35 35q18 4 36.5 -9t24.5 -15l43 18 q0 8 6 19h54q6 -10 6 -13h55q4 12 6 13q2 -6 6 -19h62v-6q33 8 102 6q6 -10 19 -24q10 2 30 -5q12 -10 15 -36q2 -41 3 -46.5t13 -25t10 -33.5q-12 -14 -28 -41q-4 -31 -7 -67q16 -16 48 -43q-18 -102 -7 -140q10 -4 19 -12v-12q16 0 43 -6v-19q-14 0 -37 -6q0 -8 -12 -23 q14 -18 43 -49q2 2 6 -18q-41 -23 -37 -49q14 -10 31 -29q2 -16 -6 -25q14 -18 30 -36q-4 -14 -37 -50q0 -10 7 -30q14 -6 36 -23q18 -25 31 -104q12 0 37 -6q8 6 14 16t6 18q0 12 -9 34t-9 36q0 8 2 16q12 6 25 19q6 12 2 27q-4 16 -2 22q16 18 36 55q-2 8 0 25q12 6 25 22 q2 10 -5 21l-7 10q-10 51 0 98q14 14 31 35q2 14 -7.5 35t-5.5 39q14 14 31 43q2 10 2 21q0 16 -9 48.5t-5 51.5h6q2 8 6 18q20 16 20 19l-2 12q0 8 7 25q8 4 16 10q2 16 -11.5 36.5t-11.5 37.5l13 12q-2 12 6 37q10 4 28 18q2 4 7 17q12 18 54.5 47.5t67.5 31.5zM1100 1323 q-16 -57 -13 -102q12 -2 37 -7q12 43 17 103q-12 0 -41 6zM1153 1196q-4 0 -49 -13.5t-47 -17.5q0 -16 -6 -49q-4 -2 -13 -6v-18h-12q-2 -12 11.5 -28.5t13.5 -19.5q-10 -23 -13 -61q23 -10 49 -25q4 -12 13 -30q-12 -6 -25 -19q2 -16 -6 -47q-14 -4 -31 -12q-6 -12 -6 -21 q0 -12 10 -23l9 -11q-2 -29 -7 -19q-2 -8 -6 -6q-12 -10 -43 -31q23 -37 23 -47q0 -6 -14.5 -12t-20.5 -25q4 -14 6 -43q0 -2 -9 -22.5t-7 -24.5q4 -8 10 -24q-2 -8 -10 -19h-19q-2 -4 -8 -12t-4 -18q0 -2 7 -19.5t5 -30.5l-24 -30h-12v-41l12 -6q-10 -10 -12 -43 q12 -12 30 -31v-19l-18 -6l-6 -35q12 -8 37 -24q18 -18 21 -36.5t5 -18.5q6 0 39 18q-18 10 -18 16q0 4 14 10.5t16 10.5v12q16 -10 13 -12q43 -2 79 18q-8 33 -6 35q2 10 26 25.5t28 29.5q6 23 -4.5 70t-20.5 45l6 12q25 41 25 68q2 37 -13 72l-12 6q-4 20 19 61h12 q4 12 -4 53t-15.5 48.5t-17.5 13.5q-2 18 14.5 33.5t16.5 21.5q-6 25 -13 25l19 43q-31 37 -31 53t31 61q-8 6 -25 19v6q-14 4 -30.5 -6t-28.5 -6q-4 8 -12 30q20 4 12 7q2 0 6 12l12 -6q14 -18 29 -6q2 2 0 16q4 8 6 18q-4 37 12 99q0 6 -18 12zM961 145q6 -2 16 -6 q-10 6 -16 6z" />
<glyph unicode="N" horiz-adv-x="1359" d="M246 1638q23 0 37 -22q16 -29 22 -31h37l12 -12q49 -8 102.5 -16.5t71.5 -38.5q0 -20 13 -48q16 -4 47 -12q8 -8 24 -18q-8 -14 -18 -31q14 -18 31 -59q-2 -18 0 -56l12 -12q-4 -27 0 -78q4 -10 29.5 -23.5t29.5 -23.5v-49q18 -4 56 -18q-10 -70 -7 -84l13 -13 q-6 -16 -6 -53q0 -6 41 -43q-12 -57 -7 -72q16 -8 43 -24q2 -8 13 -31q12 -4 28 -16v-19l13 -6q4 -12 0 -72q25 -6 73 -24q4 -10 0 -31l-24 -6q-2 -37 2 -45t35 -21q-2 6 0 19q6 2 16 12q0 8 6 29h25q2 10 0 31q-8 4 -19 12q2 10 0 31l-12 10v12q6 2 13.5 40t5.5 50 q-10 20 -25 49q-2 20 7 43t5 41l-18 13q8 53 6 59l-10 25q6 23 4 71l-35 31q33 68 25 121q-2 4 -12.5 26.5t-6.5 38.5l19 6v50l-13 18q2 16 0 47q-8 4 -18 12q-29 29 -62 29q-10 0 -33.5 -4t-39.5 -4t-33 4l-12 12q-23 8 -43.5 17.5t-20.5 34.5q0 8 2 20l12 12q8 23 13 31 q8 16 24 23q6 4 56.5 17t52.5 13q57 -49 72 -47q29 18 77 41q37 4 62 -37q20 2 59 0q29 -10 72 -22q14 6 43 12q10 -8 27.5 -17.5t36 -17.5t32.5 -26q0 -10 -6 -25q-8 2 -25 0q-18 -20 -53 -47q-35 0 -90 -19l-6 -12q-8 -14 -2 -33q4 -12 8 -26q-6 -20 -12 -56q8 -12 18 -28 q-2 -16 0 -49l13 -6q2 -8 0 -41q-2 -2 -8.5 -14.5t-4.5 -16.5l13 -12q8 -37 -19 -60q4 -10 12 -18q6 -31 7 -31q-23 -18 -25 -43q-2 -12 12 -53h-6q-18 -70 -6 -78l-12 -6q-14 -37 -7 -68q0 -2 11.5 -8t13.5 -33q0 -20 -14.5 -67t-10.5 -72h7l12 -18q-4 -12 -6 -23v-12 q6 -6 18 -19l-12 -37q-4 -23 29 -71q-20 -41 -4 -84v-13q-4 -12 -7 -30q2 -8 18.5 -15.5t28.5 -15.5q-8 -10 -18 -29q-10 -41 18 -157q-43 -33 -127 -54q-49 -12 -53 -12q-10 2 -47 23.5t-41 31t-8 23.5q-20 23 -49 84q2 20 -6 68q-12 12 -29 34v37l-25 43q-18 10 -43 35 q-8 18 -7 58t-5 57q-16 23 -35 55q-2 18 -12 59q-12 14 -31 43q-2 33 -18 91q-20 14 -53 47q-12 18 -15.5 54t-9.5 48q-25 27 -53 68q0 14 -6 41q-18 14 -37 30q-2 23 -12 66q-12 10 -31 31q2 8 0 18q-12 -2 -35 0q-8 -96 -6 -102q0 -4 47 -50q-10 -6 -23 -18 q-23 -39 -22 -100q0 -16 12 -16.5t17 -2.5q-4 -14 0 -31q-8 -6 -19 -18q-2 -16 -6 -47l-12 -12q4 -14 6 -49l-12 -19q-10 -45 -50 -78v-30q10 -4 16.5 -10.5t10.5 -41.5q4 -25 16 -26q-2 -4 -12 -19q-27 -39 -18 -78q16 -14 37 -43q-2 -10 6 -34q14 -8 30 -19 q-23 -41 -12 -59q8 -4 25 -12q8 -16 35 -43q10 2 30 0q10 -8 31 -19l94 -24q51 -20 55 -60q0 -4 -6 -41q-31 -14 -90 -31q-33 -6 -100.5 -4t-104.5 -2l-18 -12q4 0 -73 4t-154 6q-84 6 -109 49q-18 31 0 62q6 14 21 16q27 6 30.5 9.5t7.5 9.5q12 2 44 12q16 8 46.5 39 t36.5 47q-2 8 0 29q8 10 19 24q12 53 0 152q-10 18 -19 41q-6 39 0 94q6 41 13 80q0 14 -9.5 39.5t-10.5 36t-1 79.5q2 80 8 99l13 12q0 18 -8 45q-4 20 -11 39q-2 4 0 25q4 -4 6 18q0 10 3.5 28.5t3.5 30.5q0 8 -7.5 41t-5.5 50q0 4 12.5 30.5t12.5 40.5q-12 20 -25 55 q2 37 0 91q-8 25 -41.5 28.5t-66.5 7.5l-56 23q-37 18 -28 18q2 12 6 25h35q14 45 18 72q55 0 84 6q23 12 68 24z" />
<glyph unicode="O" horiz-adv-x="1269" d="M524 1638q14 2 187 -12q23 2 65 0q14 -8 35 -16h25q10 -6 21 -30t20.5 -27t33.5 -9q41 -12 60 -35q8 -29 35 -75q18 -8 47 -31q4 -10 2 -23q-4 -12 -2 -18l10 -6q0 -10 6 -35q16 -12 41 -41q8 -33 31 -88q0 -2 41 -29q-10 -66 12 -166l10 -16q-2 -14 0 -41q14 -12 35 -31 q0 -8 -4 -28q-12 -10 -25 -29q-4 -20 0 -59q6 -51 7 -64q-4 -2 -23 -6q0 -4 10 -12q-6 -18 -14 -37q-10 -31 -10 -51q0 -10 2 -19.5t35 -40.5q-4 -14 -19 -47q-18 -16 -41 -51q2 14 6 -43q-12 -2 -41 -10q0 -23 -6 -72q-2 -4 -6 -16h-10q2 -12 4 -31q-8 -6 -17 -17 q2 -6 0 -18q-6 0 -18 -6q2 -6 0 -16q-6 -6 -16 -19h-6q-4 -16 0 -45q4 -23 -4.5 -35t-35 -20t-32.5 -17q2 -12 0 -30q0 -2 -12.5 -17.5t-16.5 -17.5q-29 2 -82 0q-12 -6 -35 -17v-18q-6 -4 -47 0q-55 -2 -170 0q-23 6 -47 12q-18 -6 -59 -6q-12 8 -29 17q-25 0 -71 12 q-8 12 -29 31q-12 0 -29 4q-12 27 -37 65q-23 27 -35 29h-16v6q-4 2 -43 44t-41 44q4 14 6 41q-2 14 -27.5 40t-29.5 38q-2 20 -12 63q-16 49 -29 70l-12 6q2 23 0 66q-8 23 -19 59q2 18 -6 64q-8 10 -16 24q-2 10 7 25.5t9 19.5q2 18 -7 51t-9 43q-4 49 6 84l10 11v112 q2 33 31 68q39 51 41 55q2 14 12 41q8 6 16 18q2 12 -5 30t-7 22q2 20 27.5 38.5t25.5 20.5q8 10 8.5 31.5t4.5 34.5q2 6 26.5 33.5t32.5 29.5q6 -2 16 0q6 12 19 35q10 6 22 18v13q10 2 25 6v4q12 6 33 2q23 -4 31 -2q12 4 23 23.5t17 23.5q21 14 78 18zM748 1462 q-2 0 -7 -22q-53 -8 -59 -6q-2 0 -17.5 9t-35.5 7q-23 0 -64 -16.5t-53 -30.5q-8 -20 -25 -47h-10q-37 -2 -47 0h-12q-4 -12 -19 -35q-10 -2 -28 -12q0 -6 -6 -17q-8 0 -23 -6q-2 -10 -12 -29q-6 -6 -45 -18q-25 -8 -31 -29v-53l-25 -12q-2 -8 6.5 -30.5t8.5 -33.5 q0 -14 -9.5 -21t-21.5 -16q4 -29 23 -81q2 -2 10 -7.5t8 -15.5v-12q-27 -66 -25 -88q0 -2 19 -23v-26q2 -18 6 -17v-16q-2 -2 -15.5 -24.5t-9.5 -41.5q4 -12 60 -51q2 -12 0 -31l-7 -7q-6 -7 -6 -15q12 -25 31 -60q0 -18 10 -53q14 -6 31 -22v-13h10q25 -31 31 -53 q-2 -12 0 -35h6q2 -8 11 -22q27 -14 71 -47q4 -18 23 -41q29 -14 88 -13q14 0 55 15q35 14 51 8l6 -16q12 -10 43 -17q37 -4 56 4v13q14 8 24.5 29.5t16.5 27.5q16 8 53 24q0 4 6 13q-16 72 0 88q16 0 41 10q4 20 18 53q10 6 29 19q-12 31 -16 38t-25 19q25 -2 66 6 q-20 72 -13 88q6 4 17 13q16 18 18 59q-6 25 -6 76q12 10 25 28q0 8 -4.5 24.5t-8.5 16.5q6 16 13 41q-14 14 -31 43q0 8 6 22l6 13q0 10 -18 41q6 16 6 57q-10 12 -23 31q0 10 -6 35q-2 4 -22 31q-10 12 -6 51q-61 16 -72 53q6 12 0 47q-8 4 -16 13v10q-10 8 -39 10t-39 8 q-4 16 -11 35q-12 6 -30 18l-6 7q-2 12 -4 28z" />
<glyph unicode="P" horiz-adv-x="1419" d="M242 1638q70 10 104 -6q4 -8 12 -18q10 2 31 0q-4 0 2 3t10 3q12 2 44 -2t47 -4q25 6 30 6q66 -6 355 -6q-8 0 12 6q82 8 129 -6q6 -10 19.5 -21.5t51 -15.5t52.5 -12q16 -23 49 -49q12 -4 28.5 4t20.5 8l66 -68v-12q10 2 24 0l6 -6v-29q4 -18 49 -49q-2 -10 -12 -25 q-16 -8 -55 -24v-31q2 -2 43 -31q-20 -25 -21 -36q0 -8 9 -13q-31 -20 -33 -24q-4 -25 -10 -50l-13 -12q-6 -35 0 -96l-41 -18q-18 -16 -18 -80v-43l-12 -7q-2 -14 -2 -29.5t-11.5 -15.5t-29.5 -4q-8 -4 -17.5 -26.5t-22 -23.5t-34.5 -5q-14 -16 -31 -37q-16 -4 -55 -18 q-16 6 -62 0q-6 -10 -18 -25q-12 -2 -26.5 5t-22.5 7q-16 -10 -43 -24q-18 -4 -55 2q-47 4 -60 4q-23 0 -37 -6q-6 -10 -18 -25q27 -53 6 -84q-8 -4 -18 -12q2 -8 0 -18q-12 -6 -25 -19q0 -2 6 -6q-14 -66 -12 -74q8 -2 18 -6q4 -4 4 -12t2 -12q-10 -14 -30 -31q-10 2 -31 0 q0 2 -6 -25q2 0 6 -12q16 2 55 6q14 -25 31 -74q-6 -10 -6 -43q8 -4 18 -12v-12q20 -10 62 -23h43l12 -12h12v12q12 6 25 13q10 4 35 -7q4 -10 28 -22q10 2 27 -2v-12q16 -47 0 -74q-8 -4 -18 -12q0 -8 -5.5 -15.5t-12.5 -7.5t-13 -2q-6 -10 -25 -25q-25 2 -71 0l-13 -12 q-61 -16 -116 -6q-12 8 -31 18q-47 10 -74 13q-14 0 -34.5 -9.5t-26.5 -9.5q-27 4 -78 6l-6 -12q-41 4 -132.5 1t-138.5 5l-24 13q-23 -2 -62 12l-6 24q-6 27 -6 37q4 18 25.5 28.5t42.5 20.5q6 10 30 25q31 -2 93 6q27 16 67 35h80q10 25 25 61v50l-13 6q-2 10 4.5 24.5 t8.5 18.5q-4 31 -7 86q0 2 3.5 9t3.5 15l-13 19q-8 61 0 98l13 16q-6 14 -7 50q8 10 19 43q0 10 -6 48t-6 44q6 31 6 98q-10 12 -19 31q-10 35 -6 74l12 28q-6 35 -6 105q6 31 6 37q-12 10 -24 24q-2 12 7 22.5t11 14.5q0 12 -9 46t-9 40q-2 29 6 49l12 6q0 6 -12 49 q-10 -6 -31 -6q-6 10 -18 23q-23 0 -68 6l-6 12q-16 6 -49 19v6q-12 4 -31 4q-45 0 -117 -23q-10 4 -30 13q6 18 18 55l12 6q2 2 -6 31q23 10 62 18q16 0 55 -12q31 55 68 61zM799 1479q-14 -20 -43 -60q-6 -2 -19 0q-6 6 -12 19h-31v-13q-10 -4 -24 -12q12 -20 24 -61 q6 0 19 -6h-19q-4 -8 -12 -19q-2 -2 -37 -6q35 -4 92 -25q0 -10 6 -24q-2 -6 -6 -19q-14 -4 -30 -18q2 -18 0 -55l-13 -13q4 -6 -6 -12q23 -18 23 -29q0 -4 -4 -8q-12 -25 -37 -61q-2 0 6 -25q2 2 6 -10v-18q0 -2 -31 -25q23 -10 56 -37q-2 -10 0 -24q6 -23 30 -37 q14 -8 33 -9q20 0 55 13.5t45 13.5q2 0 31 -12q14 -2 33.5 7t28.5 11q25 -6 67 0v13l62 79q23 -2 67 7q14 6 14.5 37.5t4.5 39.5q14 4 36 19l-6 24q4 0 6.5 4.5t6.5 8.5q-2 8 -7 24q-25 20 -36 31l-7 6q0 18 -6 55q-14 12 -37 37q-2 14 -12 37q-16 4 -43 19q-2 8 -6 18 q-14 2 -43 12q-12 16 -43 43q-10 -2 -31 0l-6 13q-12 -2 -37 0l-12 10h-31q-2 2 -18 31q-14 2 -47 6z" />
<glyph unicode="Q" horiz-adv-x="1189" d="M514 1638q16 -12 51 -24q25 2 76 0q10 -12 29 -27q10 2 26 0q16 -10 45 -31q20 -4 62 -24q8 -16 28 -45q18 -4 48 -21q4 -14 14 -41q23 -10 53 -47q-2 -20 2 -63q12 -12 27 -35q-2 -8 0 -20l8 -7q2 -18 10 -59q10 -10 21 -27q6 -23 4 -65.5t2 -65.5q6 -10 14 -24 q2 -8 -4 -31q-2 -10 4 -25l6 -16q-4 -16 -6 -45l6 -7q7 -7 4 -14q-8 -6 -20 -20q-2 -12 16 -86q8 0 25 -4v-16q-12 -8 -31 -25q0 -12 -4 -41q-12 -18 -26 -55q4 -12 6 -45q-6 -14 -17 -35q12 0 31 -6v-11q8 -2 20 -10q2 -10 11 -35q-6 -6 -15 -14h-13h-13q-14 8 -15 14v7 q-35 -6 -30 -7q4 -2 2 -28q-4 -27 -5 -30t-28 -21q18 -10 45 -27q2 -10 10 -25q18 -2 47 -10q2 -8 11 -20q29 -16 65 -52q-2 -6 0 -20q6 -6 14 -19q2 -25 7 -61q12 -16 24 -35q0 -4 -5 -7l-5 -3v-31q-4 -23 -20.5 -26.5t-34.5 -8.5q-4 6 -11 15q-4 2 -10 20v-14 q-6 -2 -11 -8t-13 -19q-18 0 -52 -10q-8 -12 -24 -31q-12 -6 -44 -13t-83 -7q-55 2 -76 10q-18 23 -55 57q-12 2 -31 15q-6 16 -20 41q-10 0 -21.5 10t-11.5 33q-2 33 -2 37q-6 10 -17 30q-20 -2 -69 0q-18 8 -47 17q-16 -2 -49 0l-11 8q-10 -2 -30 -4q-12 8 -31 20v11 q-10 2 -34 12t-83 84q-10 6 -35 24q-6 12 -14 25h-10v16q-25 35 -31 41q-16 4 -41 25q-2 18 -14 55q-16 8 -33 43q0 14 -2 49q-16 25 -37 80q6 31 6 101q-10 18 -20 51q2 -20 10 82q-2 20 0 59q8 14 20 37q-2 -10 -6 39q0 8 5 26.5t5 24.5q-4 10 -4 35l11 10q-2 18 4 51 q8 4 20 15q0 10 4 30q12 16 31 45q4 23 21 66q8 6 20 16q6 14 25 45q6 2 16 11q-2 6 0 14q4 25 31 41q8 0 24 6q14 14 45 35q16 2 51 10q47 18 66 31q4 8 14 20q35 10 72 4zM539 1491q-6 -6 -15 -14q-20 2 -55 -4v-11q-14 -10 -31 -20h-41q-23 -4 -61 -37q-10 -8 -19 -19 v-16q-23 -16 -51 -51v-25l-10 -4q0 -16 -10 -47q-12 -8 -25 -24q2 -18 0 -52q-16 -14 -37 -39q4 -12 0 -41q-10 -12 -24 -30q-10 -39 4 -76l10 -4q4 -31 0 -41q-4 -4 -14 -10q4 -6 4 -21q10 -6 31 -20q-8 -33 -7 -41q0 -10 23 -29q-8 -12 -16 -31q0 -10 12 -34q4 -10 8 -21 q-6 2 -10 -24q-2 -27 0 -37q16 -10 41 -31q6 -14 14 -31q31 -20 72 0v10q25 29 86 62q12 2 30.5 -4t20.5 -6h45q20 -6 51 -15q18 2 49 4q4 0 56 -30q14 -2 59 0t53 6q16 6 21 80q18 8 55 24q-6 39 21 82q-16 27 -17 31q0 6 21 24q0 4 -15 62q12 10 11 31l-9 15q-10 15 -8 24 l17 10q-2 8 0 31l10 6q-10 39 -13.5 43t-33.5 26v21q8 4 16 10q16 29 0 66q-12 8 -31 24q-8 23 -30 62q-23 14 -52 41q6 18 -10 55q-27 10 -80 35q-29 27 -75 55q-18 6 -41 0z" />
<glyph unicode="R" horiz-adv-x="1552" d="M588 1638q18 -8 53 -18q23 6 78 12q29 0 76 -6l12 -12q31 4 78 6l16 -10q37 2 109 0q14 -4 30 -23q25 -23 29 -26q16 -6 53 -23q4 -10 17 -25q20 0 59 -12q16 -6 58 -51t51 -61q2 -16 10 -54q14 -16 31 -53q8 -45 0 -88q0 -2 -7.5 -14.5t-5.5 -22.5q8 -4 19 -12v-23 q-8 -6 -19 -24v-13q20 0 13 -47q-4 -16 -48 -34q12 -37 11 -41l-11 -7q-4 -12 -18 -30q-25 -6 -53 -29v-25l-12 -6v-12q-20 -2 -54 -10q-10 -18 -30 -43q-12 0 -41 -6v-29q10 -10 24 -31q2 -18 12 -53q25 -16 54 -59q0 -6 -6.5 -16.5t-6.5 -12.5q-8 -59 7 -96q12 -8 28 -29 q-6 -39 6 -113q8 -16 60 -12q27 -63 53 -72q18 2 53 0l6 -10q12 -4 37 -12q4 -8 11 -19q8 0 24 -6q20 -12 53 -71q16 -27 17 -48q0 -27 -23 -40q-33 -23 -65 -31q-12 2 -35 0l-19 -23q-31 2 -88 0q-14 -4 -26 -8q-23 -8 -39 -4q-25 16 -84 35q-10 -4 -35 -6q-14 10 -47 18 q-16 -4 -49 -6q-29 18 -82 47v12q-8 4 -19 13q2 14 0 41q-10 14 -28 36q35 -2 69 17q2 16 0 43q-18 16 -41 53q0 10 9.5 23.5t9.5 17.5q2 14 -8.5 30.5t-10.5 22.5q10 39 13 37q-8 16 -19 41q4 18 6 60q-10 18 -22 47q4 31 -6 90h-6q-4 6 -13 16q-18 6 -47 25q0 8 -6 18 q-10 -2 -25 0q2 6 0 17h-6q-6 0 -10 8t-6 10q-8 4 -74.5 9t-75.5 3q-2 -2 -12 -30q-55 0 -82 -23q6 -20 35 -59q6 -4 18 -13q-2 -20 -6 -65q-23 -4 -71 -19q0 -84 -6 -100l-11 -6q-2 -10 0 -19q10 -10 17 -63q-2 -14 0 -37l18 -22q4 -6 12 -19q14 0 41 -6q4 -12 19 -31 q18 0 53 -4q14 -12 41 -24q10 8 41 12q8 -8 18 -19q6 2 19 0q10 -4 26.5 -32.5t23.5 -31.5t21 -13q6 -14 0 -48v-22l-12 -6q-8 -14 -16 -25.5t-31 -17.5q-25 2 -72 0q-23 -8 -59 -17q-14 -2 -47 2.5t-37 4.5q-18 -4 -59 -7q-4 0 -32 6.5t-38 4.5q-2 0 -43 -9q-31 -6 -53 -2 q-12 8 -29 17q-35 0 -102 6q-10 10 -23 18q-12 2 -31.5 -8t-27.5 -10q-37 27 -90 59q20 98 59 113q35 4 96 18q16 18 54 48q31 8 88 24v19q-6 4 -17 10v12q8 0 29 6q-6 16 -6 19q10 6 18 14v0q-2 0 -6 -2q-4 12 -6 10q-2 12 0 25h24q2 10 11 22q0 25 -17 51q-8 0 -24 5 q0 4 -6 16l-41 31q-2 6 0 16q10 8 24 18q-4 12 0 31q23 12 60 35v35l-7 18q-31 0 -30 0l-6 -12q-12 0 -24 6l-11 6q4 4 12 13q-2 109 -6 124q-12 8 -25 23v12q27 20 66 31v29q-33 14 -35 20q-6 18 -12 39h-6q-6 0 -11.5 8t-7.5 11q12 47 66 137q-18 14 -41 41q-8 16 -12 108 q-4 86 0 111q-16 16 -54 35q-25 -2 -71 0q-6 2 -40 22.5t-36 26.5q-2 20 -6 65q10 -2 28 0q8 2 36 37t54 39q12 2 23 2q20 0 47 -13t43 -11q16 8 41 16q18 -4 66 -6l12 12q53 14 166 12zM688 1413l-18 -18q-35 0 -101 -6q2 -43 -34 -72q4 -2 -7 -29h7q2 -12 10 -47l12 6v23 h12h19q33 -4 6 -6q-8 -6 -19 -17v-18q-12 -2 -30 -6q2 0 0 -19q10 0 30 -4q-2 -10 -6 -18q-10 0 -28 -6q-4 -2 -31 -35q8 -14 18 -31h13q-2 -8 0 -25l-19 -4q2 -8 0 -18q10 -6 66 -47q12 2 35 0q2 -12 12 -37q29 0 69.5 -8t61.5 -8q20 0 41 4q8 10 18 18h41q14 10 31 19 q16 -6 57 -7l7 13q29 6 77 28q10 8 14.5 30t10.5 30q18 8 41 30q10 29 6 60q-14 14 -37 47q2 18 -16 59q-20 12 -60 35q8 8 7 19q-2 14 0 18q-12 0 -37 6v10q-18 14 -47 31q-18 4 -71.5 -9t-82.5 -9q-6 2 -34 11t-44 7zM600 1145q35 -27 41 -41q-2 -6 0 -19q-10 -6 -25 -22 h-16q-8 6 -18 18q-2 14 -7 47q9 5 25 17z" />
<glyph unicode="S" horiz-adv-x="1286" d="M451 1638q88 6 131 -6q2 0 24 -16q35 -10 86 -12q16 4 51 6q14 -8 35 -17q31 -6 51 0l13 11q39 6 130 -2.5t111 -20.5q8 -6 22.5 -40t29.5 -40h6l6 -12q0 -12 -7 -22.5t-5 -22.5q12 -12 28 -35q2 -10 -12 -35q0 -16 11.5 -30.5t13.5 -16.5q-2 -8 0 -22q-25 -8 -64 -23 q0 -18 0 -16q6 -12 10 -13q-2 -16 -6 -34q6 -18 19.5 -21.5t27.5 -7.5q-2 -4 6 -12q0 -8 -6 -29q-8 -2 -22 -10q-4 -16 -19 -47q-14 -16 -51 -64q-6 -2 -14 -2q-59 0 -101 31q-2 8 -6 18q-8 0 -22 6v17h-13q-4 10 -10 22q-10 2 -28 6q-2 8 -7 19q-8 0 -22 10q-6 14 -25 41 q-8 2 -14 7t-25 50q2 10 0 29q-18 12 -41 29q-2 14 -12 41q-6 8 -36.5 14t-37.5 14v23q-4 18 -21.5 23.5t-35.5 11.5q-2 -2 -6 -13q-37 -2 -98 -6q-2 -8 -11 -22q6 -16 7 -17q-10 -2 -25 0l-29 29q-2 -8 -6 -18q-10 -10 -61 -17q2 -4 4 -18l-10 -4q-6 -16 -19 -47 q-23 0 -22 0v-64l-17 -4q-6 -16 -4 -53t9 -46.5t54.5 -24.5t55.5 -21q0 -6 6 -17q43 -33 80 -41q53 -10 98 -6q2 2 20.5 10.5t24.5 8.5q23 -12 58 -29q18 -2 51 -12q8 -10 24 -23q14 2 39 0q10 -8 25 -16q12 0 39 -6q4 -8 12 -19q14 0 39 -4q16 -16 47 -41q8 0 29 -6l6 -12 q10 -2 35 -11q4 -8 10 -18q16 -6 41 -16v-64q27 -10 74 -22v-19q-8 -14 -17 -33q-2 -14 7.5 -28.5t9.5 -18.5q-4 -18 6 -51q2 0 69 -29q0 -23 0 -22q-20 -8 -55 -27q-6 -6 -4 -16q4 -14 2 -27l-29 -41q0 -6 7 -16q14 -6 32 -23v-24q-12 0 -32 -4q4 -31 6 -33q23 0 45 -2 q0 -14 -6 -41h-13v-10q-10 -4 -32 -13q0 -18 0 -16q-14 -4 -35 -18q-6 -6 -23 -41q-10 -25 -31 -33h-28q-10 -10 -29 -25q-6 2 -16 0v-16q-8 -33 -35 -47q-37 -6 -102 -33q-2 -10 -13 -25q-8 2 -22 0q-10 -6 -23 -16q4 2 -59 6q-39 -4 -125 -6q-31 8 -76 16h-35q-4 8 -10 19 q-16 0 -47 6q-8 12 -35 29q-37 0 -108 10q-2 6 -7 18q-12 0 -38 6q-14 -27 -54 -59q-8 2 -22 0q-33 -8 -45 -4q-8 6 -19 16h-16q-2 8 -12 29q-8 12 -64 35q10 70 -10 121l-6 12q2 2 6 4q6 18 22 41q-6 16 -12 35q10 0 12 16q2 12 0 29l-12 29q2 -2 6 69q-4 2 -10 6 q2 10 4 35l-10 10q-14 51 -6 93q2 16 28 34q18 6 64 23q6 8 16 18q43 10 133 -47l7 -10q18 -4 51 -12v-29l-13 -6q-2 -16 -6 -41q39 -16 47 -16q16 8 23 6q0 -6 12 -13q6 -14 10 -28q-4 0 -10 -29q16 -18 35 -45q-2 -10 0 -25q8 -12 47 -19t49 -13q12 -25 29 -54q55 6 53 7 q6 -12 23 -29q29 -14 63 -6l10 12h13l-6 16q8 8 22 25q55 -18 68 -18q14 0 24 6l19 16q-6 29 -6 76q4 0 12 12q8 0 33 4q0 20 6 64q6 2 12 12v16h-6q0 31 -12 86l-11 7q4 14 7 6v12q-10 0 -7 6q2 8 7 4q-4 12 -7 13v16q-55 27 -69 47q-2 12 -13 29q-12 -2 -32 0q-2 0 -13 22 q-29 0 -28 0q-6 10 -17 23h-53l-16 12q-18 -2 -51 0l-13 10h-45q-23 8 -59 19q-16 -2 -45 0l-17 22q-20 0 -57 6q-25 27 -63 64q-10 0 -29 6q-6 12 -25 29q-6 -2 -16 0q-14 20 -45 57q-8 -2 -19 0q-10 4 -22 29q-2 14 -12 45q-12 10 -29 28q0 2 18 58v47q-8 -2 -28 -12v18 q8 4 16 10q-2 10 0 29q8 4 16 12v29q10 6 25 16q0 12 10 29q4 2 4 6q0 6 -14 16q-14 20 -14 29q4 14 8 31h29q29 14 32 41q4 39 13 49l53 31q8 -2 22 0q4 6 11 16q12 0 34 6l29 29q39 18 105 22z" />
<glyph unicode="T" horiz-adv-x="1275" d="M698 1638q20 2 52 -5t49 -7l30 12q-8 -2 48 -6q55 6 159 -6q59 -20 138 -131q8 -4 24 -6q6 6 25 12q-2 -6 0 -24q-25 4 -19 6h-37v-66h13l-6 -10q8 -6 4 -21q-4 -10 -11 -22q-4 -29 2 -35q14 -10 29 -18v-19q-8 0 -18 -6q-2 -8 2 -29l4 -24q-8 -51 0 -154l18 -18 q4 -16 4 -33q0 -31 -14 -67q-10 -27 -20 -56q-2 -27 -17 -59q-29 -16 -65 -6q-23 6 -34 34.5t-22 55.5q-12 14 -28 41q2 18 -7 53q-16 10 -34 25q-6 12 -6 24q0 25 47 53v19l-25 10q6 35 6 37l-35 29q6 20 7 65l-37 31v24h18v11q-12 14 -31 30q-55 18 -131 7q-35 -6 -32 -17 q2 -25 -3 -31q-10 -2 -24 -6q0 -6 -6 -18q-12 -10 -41 -31q-2 -12 0 -35l12 -6q25 -63 23 -71q0 -6 -16.5 -25t-12.5 -41q0 -2 15.5 -19.5t13.5 -33.5q-8 -6 -17 -13v-41q-2 -4 -12 -30q-8 -18 -6 -35q16 -18 35 -53q2 -8 -11 -56q10 -4 13 -34q4 -31 -2 -54q-8 -8 -17 -18 q-18 -41 -6 -96q0 -4 12.5 -23.5t10.5 -42.5h-4v-29q-4 -2 -13 -6q-4 -23 6 -39q6 -6 11 -14q2 -8 -4 -25q8 -4 4 -71q-6 -80 -4 -88q2 -14 4 -31l12 -6q-4 -6 -6 -19q10 -14 30 -16q43 2 54 6q4 4 12 17q14 4 139 -27t135.5 -39t22.5 -43q16 -41 18 -45l-24 -6 q-4 -10 -10 -31q-18 2 -19 0q0 -4 6 -16q-4 -2 -12 -13q-137 -20 -162 -18q-33 10 -100 25q-143 10 -191 0q-6 -6 -24 -13q-57 -4 -88 0q-16 10 -43 23q-6 2 -41 -4q-10 -2 -29.5 4t-23.5 6q-6 0 -20.5 -5t-16.5 -5h-54l-28 -13q-12 -2 -28.5 4.5t-49.5 18.5q-4 12 -6 31 q0 4 22 53q10 0 6 4q-2 2 -8 5t-14 16v16q14 12 35 24q8 2 119 -6q39 -6 43 -6q20 16 59 37q29 -2 88 6v10q8 4 18 13q4 10 5 26q0 12 -4.5 42t-4.5 44q0 16 7.5 28.5t21.5 43.5q6 6 6 12q-10 12 -24 31q-4 12 -10.5 52t-2.5 48q20 8 43 43q-4 8 -6 23q-20 45 -43 125 q0 10 6 20q4 4 6 11l-6 77h6q0 4 -6 23q10 6 6 12q-14 12 -34 31q8 23 34 59q-8 10 -18 23q2 20 0 61q0 4 -13.5 26.5t-9.5 39.5q10 8 23 22q12 31 6 60v12l-10 12q-4 20 4 40t8 22q0 10 -12 22q-2 2 -6 11q-4 0 -6 12q2 -2 12 6q-23 20 -25 25v18q-8 2 -22 2 q-27 0 -60.5 -9t-35.5 -18v-24q-12 -6 -25 -6q-6 0 -31 6q-20 4 -35 0q-12 -12 -34 -35q-12 -6 -25 -12q-8 -18 -4 -58q6 -45 4 -61q-12 -88 -12 -90q-12 -6 -13 -6q6 -14 12.5 -28.5t6.5 -31.5q0 -20 -16.5 -53t-18.5 -41q2 -18 0 -55l-12 -4q-29 -43 -66 -37q-35 6 -43 37 q2 8 0 22q-10 10 -22 31q0 -6 5 66.5t17 230.5q12 111 13 102q-4 33 -9 68q-6 49 2 80q2 4 33 34.5t33 30.5h12q2 10 13 37q6 4 18 19q29 -8 29 -7q8 8 16 19q16 16 33 16q14 -10 35 -24q14 4 34 6q10 0 32 -22.5t40 -18.5q2 8 6 18q12 8 43 17q16 6 76 8q55 2 66 -2 q2 0 12 -6t18 -4q33 16 90 34zM1239 1417q8 2 12 -2q4 -2 -6 -4q-6 0 -10 4q-4 2 4 2zM715 1401q-6 -20 0 -25h12q-2 2 2 15q2 10 -14 10zM883 1341q6 0 6 -6t-6 -6q-8 0 -9 6q1 6 9 6zM770 1276q10 -8 35 -25q-20 -14 -12 -18q-4 2 -35 6v31zM764 1108q10 0 12 -8t-6 -10 q-10 0 -12 10q-4 8 6 8zM793 1024q23 2 22 -12q0 -10 -16 -11q6 -6 -2 -6h-11q4 0 0 9q-4 10 -4 14q1 6 11 6zM793 518q2 -10 12 -29q-27 -25 -27 -38q0 -10 8 -17q-29 0 -28 0v19q-8 4 -19 12q0 -2 -6 24q21 11 60 29zM805 406q51 -10 51 -21q0 -6 -16.5 -16.5t-24.5 -10.5 q-2 0 -16 41q6 15 6 7zM715 215q-6 -4 0 -53q2 8 6 16q4 18 4 27q0 14 -10 10z" />
<glyph unicode="U" horiz-adv-x="1486" d="M1051 1638q6 0 21 -11t20 -11q8 -2 26.5 4t24.5 6q16 0 48 -11t40 -11q25 4 82 6l20 -8q18 -6 31 -5q18 6 25 7q12 -2 27.5 -17.5t19.5 -17.5h4v-41q6 -12 11 -28.5t1 -31.5h-6q-12 -16 -29 -34q-20 2 -63 -4q-8 -10 -25 -25q-2 0 -51 -23q-12 2 -31 0q-18 -12 -18 -49 q0 -14 10 -18t4 -8q-8 -8 -24 -25l-7 -6q2 6 13 -80q-2 14 -6 -25q4 -31 0 -41q-4 -2 -11 -6q4 -49 23 -133q10 -10 29 -28q-8 -2 -29 0q-4 -49 -12 -89q-6 -6 -11 -22q10 -12 23 -35q2 -8 -6 -31q4 -23 6 -81q-4 -6 -6 -17q6 -6 12 -18q0 4 3 -7.5t3 -15.5h-6 q-8 -16 -25 -35h-10q-6 -14 -6 -28q0 -18 13.5 -52t9.5 -55q-8 -8 -17 -16q-6 -18 -1 -44t1 -38q-14 -10 -31 -35q6 -18 13 -47q-4 -10 -13 -35h-10q-2 -8 10 -53l-34 -16l-17 -76q-18 2 -53 0q-18 -23 -51 -54q-12 0 -41 -10q-4 -8 -12 -18q-29 -2 -89 -12q-14 -10 -40 -23 q-14 -2 -48 4q-41 8 -45 8q-37 -4 -104 0q-29 12 -76 35q-18 2 -53 10q-10 12 -29 31q-39 31 -94 41q-4 18 -12 41h-4q-14 14 -41 45q-16 6 -35 25v34l-12 17q2 12 0 35q-8 10 -19 24q-2 18 4 57t15 48l-13 22q-33 111 0 234v6q0 10 9.5 25.5t9.5 27.5v10q-8 4 -6 29v37 q-8 8 -19 22q4 41 6 105q-6 29 -16 71q-2 6 0 17q12 16 29 47q8 39 -7 76l-12 6q-2 18 8.5 42.5t10.5 27.5q4 29 -25 98l-10 6v18q-23 2 -66 11q-20 12 -63 30q-16 0 -51 11q-2 8 -7 18q-10 0 -24.5 8t-9.5 37q4 27 16 37q8 0 25 6q12 16 38 41h25h12q10 0 39 4q-6 6 6 6 q4 -10 19 -22q25 -6 88 22q6 8 16 19q14 2 38 -8.5t26 -10.5v13q27 6 30 6q12 -12 41 -25q12 2 29 6q4 8 12 19q18 -2 58 0q2 0 24 6q16 6 29 4q4 0 33.5 -6t46.5 -4q80 4 76 6q16 -6 21 -21.5t9 -31.5l11 -7q14 18 53 37q8 0 28 4q16 14 54 29q33 -6 92 -6q4 2 14.5 10 t16.5 8zM672 1569q-2 -12 0 -35l22 -12v-13q8 2 19 0l-13 -16q8 -6 23 -18q0 10 6 24q0 8 6 23q8 2 23 6v16q-47 19 -86 25zM741 1452q-6 -4 -12 -12q0 2 6 -29q-10 -10 -35 -22q-14 -2 -41 8q-33 14 -34 14q-76 14 -140 6q0 -111 0 -110q-10 -18 -18 -41q6 -16 12 -54 q-10 -8 -18 -16q6 -14 6 -53l-12 -19q-2 -23 11 -50t13 -42q-8 -8 -15 -17t-7 -54q-2 -37 -9.5 -39t-7.5 -4q0 -8 21 -25q2 -10 2 -23q0 -23 -12.5 -72.5t-12.5 -68.5q0 -18 10.5 -37.5t12.5 -25.5q-4 -31 0 -88q10 -16 24 -41q-35 -41 -34 -64q0 -10 4 -24l12 -11 q-4 -12 -6 -30q39 -14 59 -41q-20 -39 -20 -52q0 -20 49 -34q4 -41 5 -44.5t24 -21.5q2 -8 6 -16q29 0 88 -6q2 0 22 -11q12 -4 29 -2l18 13q14 2 38 -4.5t38 -2.5q10 2 27 31q25 37 24 39q23 16 47 35q0 16 7 47q23 6 53 18q8 6 10 31t6 33q12 6 25 18q2 10 -3 20.5 t-3 18.5q10 12 22 31q2 14 0 16q-25 27 -22 54q2 6 6 16h10q10 23 12 47q2 27 -12 64l-10 6q2 20 4 59q0 8 -2 16q-4 16 -2 25q8 14 16 35q0 16 -11 29.5t-11 17.5q-4 14 10 63q4 57 0 70q-8 10 -16 23q6 27 6 75l-19 6q6 33 6 31l23 -12q14 23 18 22q-2 0 -12 29 q-4 6 -10 12l4 60q-14 10 -51 28q8 37 10 93h-76q-14 14 -39 30q-12 -2 -37 0q-16 10 -39 23q-14 0 -47 6z" />
<glyph unicode="V" horiz-adv-x="1445" d="M907 1638q45 6 99 0q74 -6 98 -6q2 -4 4 -12q23 -2 56.5 6t49.5 8q12 0 25 -2q14 -10 37 -22q39 -12 80 -25q25 -12 43 -59l12 -6q0 -4 -5 -7.5t-7 -5.5q4 -18 -4 -53h-19q-10 -8 -24 -18q-25 2 -70 -4q-20 -25 -49 -56q-2 0 -59 -22q-2 -20 -5 -39q-2 -2 -24 -21 q16 -51 6 -77q-14 -35 -31 -48l-12 -6v-18q-4 0 -10 -4q0 -6 6 -19q14 -10 35 -30q-4 -10 -6 -29l9 -9t3 -16q-10 -6 -25 -16q-2 -14 -12 -43l-29 -29q-6 -20 -18 -59q2 0 6 -12q12 4 31 12q4 -8 16 -19q0 -25 0 -24q-41 -25 -47 -41q2 -6 0 -16q-2 -2 -47 -31q2 -14 2 -27 q0 -29 -12 -57q-16 -39 -21 -53q2 -12 0 -35q-8 -8 -16 -19v-41q33 8 35 7q-6 -27 0 -31q-6 2 -19 0l-22 -29q20 -45 18 -59q-10 -6 -24 -13q4 -66 -13 -77q-2 -6 0 -17q8 -8 19 -18q0 -4 -4 -25q-4 -14 10 -16q6 -2 16 4t12 8q2 -10 7 -18q-35 2 -41 0q-6 -14 -19 -31h-12 q2 -8 0 -23q-10 -8 -29 -24v-19q-4 -2 -12 -4v-24q2 -8 12 -19l54 -6v-41q-20 6 -33 6q-18 0 -35 -12q-25 -18 -39 -22q-27 -4 -83 -14.5t-60 -10.5q-10 10 -29 25q-14 0 -43 16q-2 12 -10 37q-8 4 -19 10q0 18 -6 55q-10 8 -24 23q0 16 -5 47q-14 16 -36 43v23q4 0 6 2 q4 4 -6 4q-16 66 -19 96q6 14 6 53q-12 14 -28 47q4 16 6 54q-12 18 -31 53q-2 35 -16 112q-8 20 -25 66q-4 10 -6 25q6 2 6 53q0 53 -6 71.5t-29.5 47t-29.5 41.5q-18 41 -23 100v47q-10 12 -25 37q0 18 -6 59q-8 6 -18 17q0 14 -6 43l-10 6v22q-12 29 -31 78v12 q-16 4 -41 11q-2 8 0 18q8 4 22 12v13q8 2 25 12q0 2 -12.5 21.5t-16.5 31.5q-25 0 -24 0q8 2 -13 6v17q4 4 19 12v6q47 39 217 39q43 0 68 -4q147 -25 165 -41v-12q2 4 7 -23q-2 -2 -7 -12q-8 -16 0 -25q10 -4 31 -12q-2 -10 -6 -29q2 -4 4 -6q0 -6 -4 -12q-10 2 -25 0h-34 q-6 -8 -19.5 -15.5t-48.5 -2.5q-37 6 -51 2q-4 -8 -12 -19q-8 0 -25 -6q-2 -4 -4 -25q0 -14 10 -41l12 -6q0 -14 7 -47l12 -12q-6 -23 -6 -72h18q8 -18 19 -63q0 -23 4 -66q14 -31 36 -84q-2 -37 0 -41q27 -20 64 -47q-10 -10 -23 -24q2 -8 0 -25q10 2 29 0q2 -6 6 -16 q18 -6 54 -19q2 -8 0 -24q-8 -4 -17 -11v-30q20 0 76 6q6 8 12 18q-8 37 -12 35q2 4 5 12.5t7 28.5q-10 8 -22 18q6 10 4 31q18 2 65 4q6 4 13 13q-2 20 0 53h12q10 4 18 24q18 49 17 95q-6 23 -6 30q10 12 18 29q12 70 -29 131q14 18 29 53q0 -8 -12 25q8 49 0 65 q-4 8 -22.5 16.5t-24.5 12.5q-4 14 -23 37v4l-6 6h-12v19l-25 30q2 12 6 17v18q27 33 72 41q22 6 59 12zM53 1567q4 -8 10 -17q18 0 54 -6q12 -6 13 -20.5t5 -22.5h6q6 -2 10.5 -8t4.5 -8q0 -4 -9 0q-2 -6 -12 -11.5t-18 -5.5q-29 0 -82 52q8 24 18 47zM688 735 q-2 -14 0 -69h29q2 -8 6 -19q12 -2 18 0q4 -4 13 6q-37 35 -66 82z" />
<glyph unicode="W" horiz-adv-x="1497" d="M1180 1638q12 2 32 -5l21 -7q37 0 104 -6l6 -18q12 -2 37 0q33 4 39 4q27 0 39 -23q8 -14 8 -29q0 -20 -24.5 -34.5t-44.5 -26.5l-66 -92q-8 -23 -8 -70t-4 -69q-2 -2 -11.5 -13.5t-7.5 -21.5q12 -16 25 -43q0 -8 -6 -14l-6 -5q-4 -14 2 -36.5t4 -30.5q-16 -12 -37 -35 q4 -14 6 -49q0 -10 -18 -56q16 -47 12 -65q-8 -6 -18 -12q-2 -20 -13 -62q-12 -14 -24 -37q6 -10 6 -43h-12q-25 -61 -25 -65q2 -10 14 -18l11 -7q-8 -4 -21 -28q0 -16 -4 -50q0 -2 -10 -19t-6 -30q8 -8 16 -24q2 -10 -10 -33t-12 -29q-2 -10 3 -17t7 -11v-37 q-10 -8 -23 -19q-4 -20 8.5 -33.5t12.5 -15.5l-15 -18l-18 -6q-2 -14 0 -25v-16h41q-8 2 12 6l12 -19q2 2 7 -18q-10 -10 -37 -25q-55 -20 -56 -35q0 -12 9 -38q-27 -20 -50 -60q-12 -23 -19 -30t-30 -13q-31 -8 -41 -6q-12 2 -24 20.5t-19 22.5q-31 20 -98 43q4 4 4 14 q0 4 4 7.5t16.5 10.5t10.5 40q-4 33 -17 43q-2 2 13 24q-10 14 -25 47q8 33 6 99q0 6 -47 41q2 23 13 67l12 13q2 10 -6 114q-20 0 0 25q-6 31 -6 18q0 6 4 27q2 14 2 22q-14 14 -31 47q-4 35 -12 80q12 0 6 6q-4 4 -12 25q-2 0 -7 -12q-25 0 -24 0q6 -8 12 -19 q-20 -6 -61 -18q-10 -86 -11 -66q0 -25 29 -61q-8 -2 -18 -6q2 -8 0 -25h-13q0 -12 -6 -43q-10 -16 -22 -41q-2 -14 35 -49q-6 -16 -7 -18q-2 -8 -6 -19q-10 0 -28 -6q-4 -6 -13 -18q2 -12 13 -37h24q-12 -16 -6 -17l-6 -12q-4 -2 -19 0q0 -2 -6 -24h-12q2 -14 6 -25 q2 0 0 -4q2 -2 6 -2q-4 -25 -6 -19q2 -4 -6 -12v-37q10 0 25 -6l-9 -6q2 0 4 -2q25 0 25 10q0 4 -8 4q-4 0 12 13q10 -4 29 -19q12 -16 18 -29l-6 -18q0 -2 -12 -24.5t-12 -30.5t6 -13q-8 -20 -35 -49q-18 4 -37 6q-10 -2 -17.5 -22.5t-13.5 -24.5q-12 -2 -37 -12 q0 -8 -6 -18q-16 -18 -78 -25q-14 27 -36 61q-12 0 -43 13q0 6 -7 16h-18q-4 8 -12 19q2 14 6 36q4 14 12 43l12 7q4 25 -12 59q-23 49 -24 49q2 16 -5 49q-12 10 -24 31q-16 59 -6 127l12 12q12 51 6 90q-10 8 -18 19v18h-19q-18 6 -24 31q4 35 0 102q-8 10 -19 25 q-10 45 -6 80q2 6 17 39q12 27 8 51q-8 6 -19 18q4 8 6 19h-12q2 12 -6 43q-12 4 -25 10q-4 14 -4 29q0 10 4.5 33.5t4.5 35.5q0 14 -5 31q-31 31 -65 78q-2 14 7 34.5t11 26.5q4 33 -12 66q-10 8 -25 24q0 8 -6 25q-23 12 -55 31q-12 8 -53 30q0 16 3 33t19 27 q49 33 117 18q6 -4 15.5 -8t19.5 -4q12 10 24 18q20 0 62 7l6 12q10 0 68.5 -15.5t64.5 -21.5q0 -10 6 -25q8 -2 25 -4q4 -14 4 -28q0 -55 -35 -64q-10 2 -31 0q-8 -10 -26.5 -21.5t-57.5 -27.5q-2 -14 7 -47q16 -10 36 -31q2 -14 -4 -31q-4 -8 -8 -18q-2 -12 10.5 -35.5 t12.5 -30.5q2 -18 -8.5 -40.5t-8.5 -38.5l11 -25q-4 -12 -5 -43l11 -4q10 -27 24 -80q-4 -29 0 -80l19 -10q6 -45 -19 -49q12 -20 25 -43q-2 -20 0 -56h12q6 -10 19 -22q20 -4 49 -6q-2 8 0 22q10 8 24 25q-2 8 0 18q10 14 23 43q-2 4 -6 19q2 6 11 41t7 55q-6 29 -6 37 q2 10 18.5 23.5t18.5 19.5q4 12 -2 57t-4 64h12q-4 4 -6 18q0 2 31 49q2 18 -5.5 22.5t-13.5 6.5q-20 45 0 80l6 6q23 18 25 25q-10 35 -6 36q-6 14 -25 41q-23 12 -49 37v13q-6 0 -18 6q-8 16 -29 49q-8 2 -25 12q-2 6 0 17q6 2 19 6q2 23 24 55h23q49 10 61 6 q4 0 24.5 -13.5t43.5 -10.5q16 8 41 18q16 -4 55 -6l19 12q78 16 145 0q14 -4 38.5 -34.5t57.5 -26.5q20 4 66.5 37.5t81.5 35.5zM1004 1499q-14 -23 -43 -45q-6 2 -19 -4q-6 -16 -18 -43q-10 -4 -25 -16q-8 -25 -6 -43l12 -7q8 -23 19 -55q-4 -12 -6 -49q10 -10 24 -29 q8 -29 2 -67q-6 -47 -2 -68q6 -10 19 -29q2 0 30 -6q8 14 41 41q16 4 43 13q16 8 33 59q20 66 22 70q-16 14 -36 41q2 6 0 18q35 23 39 35q4 6 10 63q-49 20 -49 37q0 10 12 35q-10 8 -25 18q-6 -6 -30 -6q-18 14 -47 37zM760 1135l6 -31q-4 31 -6 31zM1044 1044 q-6 -14 -12 -36q-10 4 -28 6v-13q-14 -4 -50 -12q8 -14 43 -37q14 -4 27 -4q29 0 41 30t22 60q-14 0 -43 6zM760 1008v-13h-25q2 -4 -6 -12q8 -63 6 -74v-10h19q8 2 18 10v31q8 8 19 18q-2 14 0 37q-11 3 -31 13zM997 899q4 -6 -4 -6q-2 -2 -8 0q10 -16 35 -37h18l6 18 l-6 19q-6 0 -41 6zM1051 831l6 -18q-2 18 -6 18zM444 674v-25q-16 -4 -49 -12q14 -16 43 -55h37v18l-18 6v19q2 -8 6 12q-9 14 -19 37zM487 631v-13h13q-4 2 -3.5 7.5t-9.5 5.5zM664 225l6 -30q-4 30 -6 30z" />
<glyph unicode="X" horiz-adv-x="1544" d="M1100 1638q16 -8 43 -18q84 -6 168 -14.5t116 -63.5q20 -31 19 -41l-12 -6q-23 -35 -35 -39q-27 -6 -53 -14q-10 -10 -31 -25q-16 6 -53 6q-25 -4 -60 -34q-16 -33 -47 -72h-6q0 -18 -6 -47q-18 -12 -43 -37q2 -10 0 -29q-4 -8 -76 -43q29 -59 -6 -88q-6 -2 -19 -6 q-2 -8 3.5 -16.5t3.5 -14.5q-16 -8 -37 -22q-6 -12 -4 -29q2 -16 0 -27q-12 -14 -25 -40q-2 -18 14 -35q8 -10 15 -19q2 -2 -4 -37h-13q-2 -6 4.5 -19t8.5 -15q0 -6 -3.5 -29t-3.5 -31q10 -10 35 -24q14 -2 41 0q8 6 10.5 -0.5t2.5 -12.5q-39 -16 -39 -26q0 -6 16 -8v-19 q4 0 16 -6q6 -2 25 -59q-10 0 -31 -7q0 -10 -4 -22q43 -8 53.5 -13.5t28.5 -35.5l12 -6q-2 -8 0 -17l54 -6q-2 -4 6 -12q-10 -43 -10 -66q0 -35 22 -41h41v-24q-10 -4 -29 -13q10 -14 6 -18h13q12 -20 41 -47q23 2 65 0q37 -8 84 -41q2 -8 10 -19q20 2 62 -6l22 -28 q2 -10 0 -25q-14 -6 -34 -25q-4 -4 -4 -14t-3 -14q-16 -29 -33.5 -40t-37.5 -9q-33 2 -37 2q-25 -12 -70 -25q-100 -14 -143 -6q-2 0 -12.5 6t-12.5 6l-18 -12q-6 -2 -29 6q-43 -4 -125 0q-14 2 -80 33q-55 25 -88 20l-12 -12q-16 2 -53 -6q-6 -10 -23 -23h-37 q-90 -18 -88 -18q-20 8 -55 18h-113l-6 -12q-18 -2 -63 7.5t-62 11.5q-33 -6 -106 0q-10 8 -19 16q-29 -4 -84 0q-10 12 -20 25.5t-10 33.5q0 25 18 84q14 0 49 -6q27 0 78 6q20 16 60 37q4 0 45 -2q27 0 43 12l6 13l8 8t8 22q0 25 5 31t16 17q0 20 10 59q23 25 55 72 q10 41 47 112l29 19q-2 18 0 53q10 4 25 12q8 8 10 29.5t8 30.5q10 2 22 6v18q14 10 31 29v24l12 13q20 82 19 119q-6 45 -49 100q-8 4 -17 12q-12 37 -43 109l-34 28q-2 10 -7 31q-8 6 -18 16q2 16 0 43h-6q-18 8 -33 39q-25 47 -27 50q-20 12 -53 43q-4 4 -10 26 q-4 14 -21.5 21.5t-42.5 3.5q-33 -4 -38 -4q-115 6 -150 47q-2 2 -12 18q-6 31 41 64q39 29 71 32q12 -6 43 -6q14 10 35 23q8 2 60 6q55 -6 174 -6q12 4 27.5 9t31.5 3l12 -12q14 -2 66 0q68 6 65 6l23 -12q4 2 13.5 10t23.5 8q6 0 24.5 -9t34.5 -9v6q16 0 47 6l6 12 q33 4 93.5 -3t91.5 -3q2 0 20.5 6t20.5 6zM731 1448q-12 -12 -29 -25q-8 4 -30 7q-6 -20 0 -23q-4 0 -13 -6h-12q-2 -20 -2 -33q0 -41 45 -41q12 0 35 2q6 -10 18 -31q-33 -6 -77 -18q-4 -6 -13 -16q8 -2 19 -7v-18q2 2 6 18q39 -4 29 -6h18q8 -6 18 -18q-2 -10 0 -29h13 q2 -4 16 -12q6 8 19 22q12 6 30 19q0 10 6 31q2 4 31 20q18 12 23 39q0 6 -13 72h25q4 4 0 16v12h-31v-41q-16 -2 -53 7q-6 2 -29 38q-16 27 -49 21zM768 524q-8 -12 -18 -24q-12 4 -31 6q-6 -4 -23 -12q6 -6 6 -17q0 -35 -24 -49q-12 2 -37 -4q-4 -10 -16 -25 q25 -39 24 -53q0 -10 -12 -6q2 -41 4 -31q-2 -20 -4 -28v-7q-10 -4 -66 -12q0 -25 0 -24q16 -10 54 -23h28q12 -12 49 -31q59 -16 89 6q4 8 12 19q35 -4 96 6l23 29q2 4 2 59t-2 59q-14 16 -35 44q-4 18 -19 53q-20 10 -53 30q-4 12 -18 29q-4 2 -29 6z" />
<glyph unicode="Y" horiz-adv-x="1546" d="M1176 1638q18 2 48.5 -10t32.5 -14q14 -2 36 5t24 7q49 4 106.5 -11.5t71.5 -41.5v-23q12 -18 25 -37q-18 -33 -50 -75q-2 -2 -50 -24.5t-50 -22.5h-63q-23 -49 -50 -66q-10 0 -22 -6q-2 -16 -12 -47q-12 -4 -29 -12q-2 -12 -7 -39t-24 -56h-12q-4 -20 -23 -59 q-14 -8 -30 -25q4 -16 0 -47q-14 -6 -35 -22v-54q10 -4 24 -12q-2 -8 0 -22h-24q-6 -12 -19 -25q-14 2 -40 -6q-6 -18 -17 -47q-8 -4 -18 -12q0 -10 -6 -29q-16 -10 -35 -31q2 -14 0 -47l-13 -12q2 -10 0 -29q-8 -2 -18 -6q0 -12 -6 -47h31q-2 -18 0 -19q-12 -6 -31 -22 q-2 -8 -10 -90q4 -12 4 -4v-13q16 -8 49 -36v-23q-8 -2 -19 -6q-2 -10 -12 -35l-18 -12q14 -20 30 -47q-2 -8 0 -19q12 -18 33 -20q29 -4 37 -8.5t20.5 -28t28.5 -25.5q12 -2 41 9.5t45 11.5q10 0 21 -4q8 -10 23.5 -19.5t33.5 -5.5q25 4 37 2q18 -2 88 -35v-24 q-4 -8 -16 -19q-10 2 -31 0q-18 -4 -41 -35q-12 -25 -25.5 -53t-36 -29t-69.5 -6q-2 -2 -9.5 -10t-19.5 -8q-12 8 -31 18q-31 6 -69 0q-16 -8 -41 -18q-29 -4 -80 4t-70 8q-4 -6 -14 -10t-20 -4l-76 20q-10 -4 -25 -6q-49 -2 -160 6q-37 6 -81 29q-14 14 -43 35 q-18 4 -64 12l-6 25q6 18 22 41q20 2 66 12q12 8 29 16q20 0 59 7q4 8 12 18q23 10 60 6q6 -2 32.5 -13t38.5 -11q12 8 29 18q16 -2 41 0v12q12 8 25 23q0 18 6 59q10 23 22 72q0 4 -5 21.5t-5 19.5h-25v18q10 14 25 41q2 20 2 41q0 16 -5 52t-3 61l-12 6q0 29 -13 82 q-16 14 -34 37q4 20 0 63q-8 6 -19 13q0 18 -6 53q-10 6 -21.5 20.5t-31.5 91.5q-2 0 -23 7q-8 -6 -18 -19q2 -6 0 -16q-14 4 -54 10q-2 8 0 18l29 19q2 10 6 22h6q4 25 -14 56q-25 39 -27 45q4 8 7 24q-10 12 -25 35q0 16 -10 47q-25 14 -60 37q4 4 -6 10q0 16 6 37 q-16 12 -47 35l-12 6q-2 16 -12 35q-16 2 -54 6q-20 14 -59 31q-4 0 -51 2q-29 2 -37 14v37q-10 12 -25 35q0 8 13 24q49 29 94 23q2 0 28.5 -11.5t43.5 -6.5q14 20 41 43q10 2 131 0q6 -6 16 -13.5t31 -5.5q4 8 12 19q59 -18 64 -19q2 0 16 6t20 6v-6q10 -12 35 -30 q12 2 35 -5l43 -53q-2 -10 0 -24q-23 -16 -27 -22.5t-10 -37.5q-6 0 -19.5 -3t-15.5 -3q-18 8 -41 19q-63 6 -63 -27q0 -10 10 -45q-2 0 -6 -17q-2 -14 0 -18q16 -12 47 -35q2 -10 12 -24q6 0 17 -6q0 -10 6 -23h18l-6 -31q4 -2 19 -2q8 0 10 -4v-22q10 -10 24 -25 q37 18 43 18q14 0 33 -30q20 39 43 78h17q14 8 36 22q-2 6 -18 31q10 4 25 18q14 27 14 84q2 66 8 86q-12 8 -29 25q2 10 0 28q-8 -12 -18 -34q-25 4 -72 18q-4 6 -16 16q0 12 6 37q8 14 51 15q51 0 60 2q10 14 24 30l35 13q29 4 90 -2q59 -6 88 2q17 12 54 28zM45 1544 q10 -4 23.5 -8t13.5 -8q-2 -4 -6 -7t-19 -8q-29 -4 -28 5q0 -5 16 26zM750 1491q14 -16 0 -12q-6 2 -7 8q5 2 7 4zM678 1253q8 2 10 -2q0 -6 -4 -12t-10 -8q-10 -2 -10 2q0 16 14 20zM727 1106q-2 -10 0 -29q2 -2 16 0q2 -8 7 -18q25 -6 6 6q0 -4 6 16q-4 2 -6 25h-29z M637 711q-8 -2 12 -6q-4 -6 -6 -13q-12 8 -12 15q0 4 6 4zM655 651q6 -2 13 -2q-2 -2 -13.5 -6t-17.5 -4q10 6 18 12z" />
<glyph unicode="Z" horiz-adv-x="1222" d="M442 1638q10 0 28.5 -9t21.5 -9q33 6 108 6q8 0 55 -10q41 -8 58 -8q16 2 34.5 12t38.5 6q0 -6 5 -18q10 0 34 -6q18 -6 27 -7q12 0 51 15.5t62 9.5q10 -10 24 -25q20 -2 53 -16q6 -16 19 -43q14 -10 37 -29v-18q-14 -10 -31 -31q2 -14 0 -41q-10 -14 -25 -37l-4 -18 q4 -10 11 -35q-25 -14 -54 -37q2 -16 0 -41q-23 -10 -47 -24q-2 -6 -6 -19q-12 -16 -72 -78q12 -27 13 -38q0 -4 -37 -39q14 0 0 -43q-6 -10 -19 -23l-36 -6l-5 -12q-20 -8 -55 -25q-4 -82 -18 -102q-25 -8 -60 -29v-18l-24 -43q-8 -4 -23 -19q-6 -12 -18 -41h-6 q2 -12 0 -31q-20 -6 -50 -16q-2 -29 -10 -74q-10 -6 -30 -22q-49 -47 -50 -105q0 -20 7 -41q-59 -18 -60 -43v-8q2 -6 2 -8q0 -25 -14 -47q-12 -6 -35 -19q-2 -10 -6 -24q18 -4 53 -19q4 -8 12 -18q25 -6 78 -22q14 -12 37 -25q18 10 47 18q10 -8 25 -18q10 2 28 0 q4 10 13 25q29 8 205 -7q14 25 40 54h13v18q8 29 61 53q-6 6 0 15q6 12 6 16q-10 8 -18 18q-6 18 29 103q0 2 5 8t5 10q0 6 -24.5 36t-20.5 52h6v13q14 8 35 24q4 18 18 53q8 4 25 25l6 6q12 4 72 -24v-23l12 -6q-6 -14 -6 -49q2 -4 41 -41q2 -8 0 -19h-6q0 -2 -29 -30 q0 -12 6 -6l23 -23q-18 -25 -19 -41q0 -29 80 -49q-8 -14 -18 -27q-20 2 -66 -4v-12q-6 0 -18 -6q12 -66 0 -109q8 -2 30 -10v-25q-12 -8 -24 -24q-2 -8 5 -26.5t13 -20.5q-8 -14 -6 -19q-16 -10 -49 -30q-25 -20 -78 -48q-41 -8 -100 -8q-88 2 -97 2q-293 -12 -360 -12 q-20 2 -55 6q-6 6 -17 12q-14 2 -39.5 -8t-40.5 -10q-16 8 -41 18q-43 -6 -127 0q-12 10 -34 29q-14 8 -27.5 16.5t-15.5 20.5q-6 45 67 137q20 18 47 49q4 14 -2 41q-6 25 2 43q16 8 41 31v16q12 6 25 19q4 18 18 53q14 10 37 31q2 25 17 71h6q10 18 30 43q6 0 19 7 q-2 12 6 34q14 6 35 25q-2 10 0 25q20 10 55 34q10 20 35 62q8 4 18 12q2 29 19 88l12 6q-2 6 0 19q4 12 31.5 30.5t34.5 30.5q-2 12 0 35l41 31v18q8 4 18 10q0 12 6 37l12 6q-2 14 0 41q31 18 66 43q0 16 6 48q8 10 25 30q8 4 18 13q8 18 12 96q-29 16 -73 35 q-41 8 -107 -7q-14 -8 -31 -16q-33 -8 -79 0q-63 10 -76 10q8 -66 0 -71q-12 2 -31 0q-23 -4 -65 -35q10 -10 24 -25q-2 -6 0 -18q-10 2 -24 0q-23 -8 -13 -66q-16 -2 -37 -12q2 -12 0 -35q-6 -10 -10 -18q23 -14 10 -56q-10 -8 -22 -22v-19q-20 -8 -55 -18q-47 -4 -66 6 q-10 6 -21.5 59.5t-11.5 94.5q0 16 2 26q18 20 37 60q2 12 -7 24.5t-11 18.5q-12 61 12 112q12 8 25 25q0 6 -6.5 20.5t-6.5 16.5q-2 8 15.5 50t21.5 46q33 31 84 17q4 -4 17 -11q23 -2 69 17q59 25 64 24q8 -2 24 0q-6 2 4 6z" />
<glyph unicode="^" horiz-adv-x="976" d="M459 1638q12 0 98 -24q12 0 35 -6q6 -8 20 -25q14 -2 39 -14q12 -23 35 -53q16 -8 41 -31q4 -18 18 -49q35 -41 66 -56q8 2 29 -4q2 -4 6 -14q29 -47 53 -59h6q10 -18 8 -62q-2 -31 -4 -63q0 -8 4 -45q-25 -20 -84 -50q-23 2 -69 0l-8 -10q-31 -6 -66 -4q-39 4 -83 34 t-60 60q-2 16 -25 39q-6 2 -45 0q-4 0 6 -28q-18 0 -55 -11q-10 -4 -43 -37q-25 -25 -62 -26q-113 -12 -147 -6q-16 -2 -45 0q-6 8 -21 20q-4 0 -14 4q-8 12 -10 31q-2 31 -6 40t-9.5 21.5t-3.5 26.5q47 82 54 90q8 2 24 10q4 8 11 19h10q6 25 28 59q18 2 46 15q6 18 20 45 q14 10 39 34v15q8 4 18.5 13t26.5 32q58 65 119 69z" />
<glyph unicode="_" horiz-adv-x="1812" d="M1477 -27q31 2 111.5 -29.5t86.5 -47.5q-2 -12 0 -37q25 -2 66 -13l24 -24q6 -2 19 -6q-2 0 6 -29q-20 -8 -68 -25l-6 -12q-6 2 -16 0q-12 -6 -36 -36.5t-37 -30.5t-36 -5q-10 -8 -24 -18q-10 4 -35 6l-12 -12q-63 -25 -103 -19q-8 8 -18 19q-12 4 -31.5 -1t-28.5 -5 q-2 0 -21.5 6t-31.5 6q-23 -8 -49 -18q-29 2 -94 0q-66 -4 -56 -7q-8 8 -16 19q-18 -2 -49 0l-25 12q-82 -10 -88 -12q-4 -12 -12 -25q-20 -6 -51 2q-43 10 -45 11q-20 -6 -72 -7q-37 14 -90 31q-43 2 -84 -6q-12 -10 -35 -25q-51 -10 -96 -6l-25 13q-14 2 -37.5 -5.5 t-33.5 -7.5q-23 0 -57.5 11.5t-51.5 13.5q-47 -4 -131 6q-23 20 -31 31q0 33 -6 84q-12 82 -10 90q6 4 16 12q10 20 22.5 44t31 29t73.5 3q49 0 60 -4q10 -10 30 -23q20 -4 51 17.5t62 17.5l12 -12q12 -2 54 0q4 0 27.5 6t27.5 6l6 -12q10 0 33.5 -3t25.5 -3q8 6 31 6 q12 -10 35 -23q18 4 59 0q12 -12 31 -24q18 -4 84 -6q70 0 84 6q4 8 12 18q18 -4 60 0q12 10 28 23q16 4 33 4q25 0 72 -12.5t72 -12.5q14 0 26 7.5t33 19.5q53 18 113 12q2 0 23.5 -6t25.5 -6q29 12 82 24z" />
<glyph unicode="`" horiz-adv-x="606" d="M154 1675q43 4 73 -8q4 -6 13 -14q10 2 32 -4q2 0 30 -23.5t28 -26.5q4 -12 16 -32q6 2 14 0q2 -4 9 -13q8 0 28 -8q14 -16 58 -45v-4q8 2 32 0l17 -16q-2 -8 0 -25l16 -16q-2 -6 0 -21q8 -12 25 -37q6 -14 4 -16h-4q-2 -12 -8 -37q-8 -6 -21 -20v-21q-4 -12 -29.5 -27.5 t-44.5 -17.5q-68 -6 -90 8q-12 6 -17 26.5t-15.5 25t-34.5 14.5v8l-29 33q-8 4 -25 12q-2 6 -8 16q-8 2 -28 9q-6 16 -25 41q-8 0 -25 4q-6 6 -6 19.5t-2 17.5q-12 8 -28 16q-2 14 -13 41q-2 8 -22 37q-16 23 -17 43q0 12 4.5 25.5t14.5 27.5q12 4 28 2q23 -4 29 -2 q11 2 21 8zM174 1636q-33 -2 -33 -10q0 -14 37 -18q39 -2 39 14q0 18 -43 14z" />
<glyph unicode="a" horiz-adv-x="1417" d="M590 1307q4 0 22.5 -11.5t22.5 -11.5q31 8 94 6q18 -18 41 -35q12 10 57 17q27 -4 72 -35q4 -10 16 -23q4 -4 7 -2v5q0 6 6 4v-13q37 -20 71 -39q43 -25 62 -49q4 -4 37 -57q-6 -2 -6 -10q0 -18 16 -52t27.5 -36t42.5 -9q4 -4 12 -10l-6 -12h-23q-25 -6 -24 -37v-51 q0 -2 -6.5 -14.5t-4.5 -20.5q0 -2 6.5 -18.5t4.5 -28.5q0 -2 -9.5 -16.5t-7.5 -30.5l13 -10q12 -37 4 -76q0 -8 -15.5 -29.5t-13.5 -42.5q2 -6 15.5 -24.5t13.5 -26.5q0 -10 -11 -19h-28q-2 -8 -1 -41l1 -34q2 -6 39 -29q12 -12 30 -23q6 -2 31 1.5t33 3.5l6 12q18 4 33 4 q51 0 84 -86q10 -20 22 -57q-4 -14 -6 -31q-8 -2 -22 -16q-8 -6 -17 -19v-22q-16 -12 -41 -35q10 0 10 -11q0 -18 -28 -59q-63 8 -105 -12q-10 -10 -31.5 -20.5t-80.5 -8.5q-61 2 -80 10q-14 20 -35 47q-14 14 -53 29q-18 8 -29 6q-55 -8 -88 -28v-13q-12 -10 -29 -22 q-8 2 -24 0l-6 -12q-20 4 -58 6q-12 -8 -28 -17q-25 2 -72 0q-25 -12 -70 -24q-10 0 -26.5 6t-20.5 6q-23 -4 -63 -6q-16 8 -41 18q-27 -4 -82 11q-12 25 -35 53q-20 6 -57 22q-20 12 -60 95q-14 25 -35 69q2 18 0 53q-2 6 -13 26.5t-9 37.5q8 18 16 47q-6 14 -6 53 q4 10 23.5 19.5t23.5 15.5v16q14 27 35 70q0 12 6 37q12 16 88 51v6q14 -2 35 0q4 14 12 35h11q-49 12 -76 35q-4 14 -23 35l-26 10q-10 4 -13 27q0 6 -2 10q-10 6 -22 24q-4 10 9 95.5t22.5 95.5t25.5 31v16q39 57 47.5 65.5t61.5 41t61 34.5q12 -8 51 -12q18 16 54 35 q23 -2 63 0q8 2 34 18.5t38 16.5zM584 1085l-13 -12q-23 2 -63 0q-16 -10 -41 -22h-12q0 -23 -13 -60h-22q-8 -41 0 -63q14 -20 12 -19q-4 4 -12 -4q4 -20 0 -31q-12 -8 -23 -22q2 -25 0 -76q129 -10 168 0l6 12q37 23 70 29q31 4 88 -6q2 14 12 47q-10 0 66 -4q43 0 57 10 q8 6 13.5 28.5t9.5 41.5q-25 12 -76 41q-4 6 -12 16q-10 2 -35 13q-8 14 -35 34q-33 4 -94 19q-2 0 -19 18q-12 12 -32 10zM793 596v-12q-20 -6 -76 -25q-8 -6 -23 -16q-45 0 -135 -6q-37 -14 -98 -35q-6 2 -19 0q-2 -10 -10 -23q-20 -8 -53 -24q0 -14 2 -29q0 -12 -14 -18 q-14 2 -41 0l-7 -11h-16q0 -8 6 -24q16 -8 41 -23q-2 -8 0 -18q6 2 17 0q10 -4 26.5 -28.5t26.5 -29.5h22q39 -10 54 -6q8 8 22 19q53 10 135 -19v-4q0 -2 6 -2v6q43 23 48 29q-2 12 4 35h12q8 14 25 30h45q20 53 71 87q-8 4 4 12q0 2 -10 18h10q2 6 6 23q-14 10 -34 35 q-4 18 -12 39.5t-35 19.5z" />
<glyph unicode="b" horiz-adv-x="1337" d="M246 1626q16 4 43 4q119 0 147 -26q4 -18 10 -43q16 -33 78 -66q2 -10 0 -29q0 -2 -6 -4t-6 -8q0 -2 10 -24.5t8 -40.5q-10 -14 -24 -41q-8 -45 0 -78q12 -10 24 -29q0 -8 -6 -13l-6 -5q-4 -12 2 -22.5t10 -18.5q68 -6 78 0q0 10 6 22q18 18 54 25q53 10 112 -6 q14 -8 35 -19q8 6 31 13q2 0 63.5 -16.5t67.5 -18.5q4 -10 16 -25q4 -4 13 -4v0q12 0 26 -14q18 -20 21 -23q27 -12 65 -43q10 -12 17.5 -45t15.5 -42t20 -25v-19q8 2 19 -4q2 -4 2 -16.5t4 -14.5h18q18 -4 23 -20q6 -37 6 -39l19 -6q-2 8 -7 -47h-6q10 -18 13 -66 q-8 -8 -19 -18q-2 -23 10.5 -36t14.5 -18q-4 -18 -6 -65q4 -111 0 -131q-10 -12 -25 -35q0 -23 -12 -66q-14 -8 -35 -28q-10 -20 -12 -90q-4 -72 6 -84q8 4 24 6q4 37 9 57q10 37 26 45q-4 2 -6 13q10 -4 37 -7q-2 -18 0 -18q6 -2 22 -6v-41l-12 -6q4 -10 0 -43l-10 -4v-19 q-8 0 -19 -6q-2 -10 -12 -25q-12 -6 -37 -10q-12 0 -28 -24q-41 -2 -54 0q-8 -14 -16 -31q-23 -2 -43 -4q-27 6 -35 4q-27 -4 -72 -10v-13q-12 -10 -36 -24q-31 -10 -127 -10q-94 0 -127 10l-6 18q-18 0 -60 6q-2 0 -43 23q-27 14 -53 12q-29 -8 -60 -16v-12 q-16 -47 -88 -37q-6 2 -28.5 16t-30.5 14h-6q-6 10 -10 64q-4 61 -10.5 73.5t-16.5 47.5q0 2 3 20.5t3 26.5q6 2 12 6q2 18 -8 47l-14 47q-12 10 -6 12q8 6 8 35q0 12 2 19q12 12 25 30q-2 25 0 72q8 14 18 41q0 -2 -6 23q0 -2 3 4t3 8q2 29 0 72q0 6 -6 29.5t-6 35.5 q8 23 18 53q4 35 -12.5 74t-11.5 70q8 14 18 35q4 20 -5 54t-7 58q0 18 10 101q8 72 8 114q0 39 -6 66q-8 6 -18 16q0 14 -7 43q-8 4 -18 12v11q-14 10 -117 18q-88 8 -96 35q-2 10 -2 20q0 63 33 76q8 -2 22 0l13 12q18 2 43.5 -6t33.5 -6q27 21 60 41zM793 754 q-20 -14 -54 -31h-90q-2 -18 -12 -41q-8 0 -23 -6q10 -23 35 -66q4 -2 13 -6q-2 -8 0 -18q16 -2 34 -6q-14 -4 -53 -11l6 -12q-14 -10 -14 -16q0 8 14 -25q8 4 19 10q6 2 47 -16q-10 -6 -4 -29q4 -12 10 -24q8 2 18 4l11 6q-2 41 0 59v13q39 20 38 34q0 8 -10 9 q-16 0 -39 -19q-2 4 0 17q-12 0 -37 6q-8 12 -28 24q0 -4 -12 -6l-7 12q8 0 25 7q0 8 4 18q8 -2 18 0l7 10q14 2 53 6q6 33 18.5 41.5t59.5 18.5q-2 4 -13 24z" />
<glyph unicode="c" horiz-adv-x="1318" d="M625 1253l34 -10q23 -2 51.5 4t55.5 2q27 -16 78 -37q39 -4 112 -28q4 -8 11 -19q10 0 24 -6q0 -8 6 -18q8 0 29 -4q4 -8 12 -19h25l41 -31v-16q25 -25 59 -78q0 -23 13 -65q20 -14 59 -41q-16 -51 0 -125q-45 -8 -47 -23q-10 -43 -12 -47q-10 -16 -85 -51t-100 -33 q-10 2 -61 30t-58 36q-2 2 -12 35q-8 8 -29 10q-27 0 -35 5l-24 15q4 20 19 60q2 6 22 16q23 39 12 84q-12 12 -28 35q-2 8 -6 18q-29 2 -84 13q-6 0 -43 20q-31 14 -52 8v-18q-20 -2 -65 -4q-4 -20 -25 -49q-10 0 -35 -11v-18l-34 -41h-13q8 -6 6 -18q-16 -12 -16 -21 q0 -14 -8 -27q-6 0 -16 -6q-2 -14 -13 -41q-2 -2 -18 -6q16 -2 16 -8q0 -10 -22 -16q2 -12 0 -41l-13 -6q0 -27 6 -101q-8 -2 -28 -12q10 -4 6 -17q-2 -14 -12 -18q2 -8 6 -31h18v-10h4q0 -39 13 -90q10 -8 36.5 -9t31.5 -3t38 -70q12 25 19 29l41 6q20 -43 59 -94 q16 -6 65 -6t66 6q14 16 47 34q25 -6 72 -12q27 2 40 23.5t23 42.5q6 2 13 6v18h18q8 12 18 29q-4 16 0 59q4 0 11 13q20 -2 59 6q6 8 18 16h25q6 10 16 19q33 6 70 -12.5t49 -41.5q0 -8 6 -22q23 -16 47 -53q4 -18 -8 -49t-20 -35h-19q0 -14 -6 -41q-8 -8 -18 -19 q0 -18 -4 -53q-66 -20 -103 -53v-13q-4 -12 -41 -28q-14 -8 -49 -6t-39 0q-2 -10 -6 -25q-20 -23 -47 -35q-20 -2 -66 -12q-14 -10 -34 -23q-29 -6 -74 0q-49 6 -70 7q-66 -4 -53 -7l-22 11q2 0 -76 -2q-43 -2 -68 14q-6 12 -22 31q-8 -2 -19 0q-8 8 -18 16q-14 2 -41 12 q-6 14 -25 35h-16l-43 31q-2 12 -10 35q-16 8 -39 37q2 20 -4 63q-14 18 -35 49q-4 20 -12 47q-6 0 -17 6q-2 20 -12 64q-14 14 -31 37q0 27 -10 82q-8 10 -19 24q-10 51 7 95l12 6q-2 20 0 47q10 27 22 71q-2 12 0 35q20 27 48 78q-2 8 0 23q18 14 40 36q6 18 25 54 q12 4 31 16q0 14 10 43h12v6q10 4 47 35q4 10 13 25q20 0 59 10q14 16 47 43v10q12 8 36 9t35 6.5t23 15.5q18 0 54 6q16 8 43 16z" />
<glyph unicode="d" horiz-adv-x="1318" d="M780 1638q2 0 18.5 -5t18.5 -5q27 2 76 0q8 -8 25 -18v-13q10 -6 28 -22q25 -33 6 -84q-18 -14 -6 -6q4 2 6 -12q8 -37 6 -76q4 -14 7 -6q-2 -2 -4 -5q2 0 10 -2q2 -16 1 -27t-1 -26l-13 -6q-2 -6 -12 -41q23 -20 25 -47q0 -2 -3 -21.5t-3 -25.5l-19 -6q0 -14 -6 -43 l-16 -4v-31q18 -16 41 -53q0 -6 -9.5 -25.5t-9.5 -21.5q0 -8 6 -22l6 -13q-4 -14 -6 -49q14 -25 31 -76q-6 -18 -6 -60q10 -14 22 -34q10 -45 -6 -90q-10 -14 -22 -35q6 -14 12 -54q-10 -16 -18 -36q6 -10 12 -35h-6q0 -8 -6 -25q-12 -8 -29 -28v-19q23 -25 53 -53h10 q20 -33 -6 -113q8 -10 20.5 -19t45.5 -5q37 4 47 2l6 -13q20 2 53 0q8 -8 19 -18q12 2 28 0q12 -6 43 -70q6 -14 7 -24q-8 -10 -19 -25v-16q0 -2 -35 -25q-14 -10 -31.5 -19t-46.5 -5q-31 4 -53 2q-20 -12 -53 -25q-37 -6 -84 6q-14 4 -78 43q-53 33 -96 33q-16 0 -33 -4 q-12 -12 -35 -31q-6 2 -18 0q-39 -20 -53 -28q-2 -6 -6 -13q-35 -12 -103 -8q-82 4 -104 2q-43 -4 -35 -6q-12 8 -34.5 25.5t-68.5 52.5q-12 4 -40 16q-20 29 -66 78q-20 18 -47 47q2 6 0 19q0 2 -35 28q-14 31 -12 90q6 106 6 88q-2 12 -4 27q-4 23 -2 33l12 18q4 43 -6 94 q-8 12 -19 29q0 12 10.5 32.5t8.5 33.5q-12 16 -25 36q-4 31 6 60l13 4q-4 14 0 49q16 12 35 41q-4 20 -5 72q8 4 17 10q-2 12 0 37q23 12 47 29q12 27 37 65q8 0 22 6q6 10 19 23h18q4 10 10 24h13v19q14 0 41 6q6 0 51 24q39 23 51 23q10 -10 29 -25q37 -14 65 -6 q6 8 15 17q14 16 32 14q16 -12 41 -25q18 -2 34 9.5t32 9.5q2 -8 6 -19h19q47 -12 88 7q0 82 -13 100q-8 4 -16 12v19q-8 4 -19 10q0 12 -6 31q-18 2 -53 12q-20 16 -65 35q-10 -8 -41 -13q-27 20 -60 43q-10 2 -71 -6q-35 63 -35 74q0 14 6 33h12q8 12 35 28q12 -4 47 -6 l18 13q129 40 248 34zM514 1024q-10 -10 -22 -18q-12 -2 -24 5l-13 7q-2 0 -54 -6l-16 -62q-8 -12 -55 -28q2 -18 6 -64l-17 -6q-2 -2 0 -18q-16 -2 -43 -7q-2 -6 -22 -41q-2 -10 3 -17t9 -13q-2 -23 0 -76q-2 0 -30 6q-2 -10 -17 -68q-12 -49 -12 -75q0 -41 26 -43 q8 0 27 -4q4 -8 12 -19q-8 2 -18 0l-25 -28q-2 -8 7 -25q-12 -4 -13 -4q12 -8 25 -19q2 -14 14 -38.5t45 -32.5q8 2 23 0q0 -4 -11 -19q6 0 17 -4q4 -14 18 -31q16 2 47 0l48 -18v-10q18 6 24 6q18 -10 47 -25q-6 -2 6 -12l6 19h48q41 8 65 28q0 8 6 19q10 0 35 6q2 18 0 65 q10 -2 29 0q2 6 6 17q23 12 65 37q-10 43 13 100l12 6q-2 -8 -6 76q4 23 6 59q-8 8 -18 19q2 23 0 65h-7q-8 20 -28 47h-13q-2 14 -12 41q-12 14 -22.5 26.5t-5.5 51.5q-16 0 -43 6q0 12 -5 29q-16 8 -36 24v13q-12 -2 -35 4q-2 10 -13 24h-18q-2 0 -13.5 12.5t-27.5 12.5z M283 520q8 -2 13 -8t3 -10q-2 -6 -10 -6q-6 0 -11.5 7t-5.5 11q3 6 11 6zM330 496q16 0 18 -11l-12 -8h-4q-8 8 -8 15q0 4 6 4zM1096 283q6 2 6 -2q0 -2 -2 -5.5t-4 -5.5q-4 2 -6 4q0 7 6 9z" />
<glyph unicode="e" horiz-adv-x="1232" d="M627 1284h82q20 -10 51 -24q18 0 57 -9q14 -10 37 -24q29 0 84 -19q10 -8 22.5 -35.5t20.5 -33.5q23 -12 63 -39q37 -33 64 -88q6 -33 27 -97q8 -6 18 -18q-6 -20 -6 -63q0 -2 10 -25t8 -39h-6q-2 -23 -12 -63l-12 -7q-6 -18 -13.5 -37.5t-22 -20.5t-42.5 -5 q-4 -2 -30 -18.5t-46 -16.5q-10 0 -18 2q-8 14 -25 33q-10 -2 -27 0q-43 -35 -67 -35q-18 0 -41 8q-2 2 -19 21q-20 -8 -57 -13q-2 0 -22.5 7.5t-34.5 5.5l-6 -13q-23 -2 -64 -8v-6q-35 -2 -63 6q-2 2 -4.5 8.5t-8.5 6.5q-10 -2 -24.5 -16.5t-20.5 -16.5q-8 -2 -24.5 5 t-18.5 7q-55 8 -166 -24q0 -74 25 -115l20 -12q2 -10 -20 -52q6 -4 61 -75q43 -57 59.5 -57.5t45.5 -6.5l33 -39q-2 -8 0 -18q12 -6 43 -2q35 4 45 2q12 -2 42.5 -16.5t53.5 -14.5q14 0 31 6q8 10 24 25q18 2 51 12v21q10 0 27 6q0 8 6 18q25 10 70 45q12 25 51 64 q8 -2 25 0q14 4 75 49q6 10 13 20q18 -2 51 0q0 -4 12 -12q-2 -29 -6 -90q-10 -33 -25 -88q2 -10 0 -27q-37 -35 -90 -88q-10 -14 -22.5 -28.5t-31.5 -15.5t-58 -7q-16 -18 -52 -45q-25 0 -81 -6q-12 0 -58 -17q-37 -12 -63 -8q-12 8 -27 19q-12 4 -59 8q-33 4 -47 18 q-2 8 -9 25q-4 8 -38.5 29.5t-50 27.5t-44 4t-43.5 2q-8 12 -26 33q-16 4 -43 19q-12 25 -39 69q-29 27 -76 82q-10 16 -14 41q-8 37 -14.5 48t-16.5 26q2 25 0 69l-12 19q6 23 6 78q-8 16 -6 24q2 12 27.5 28.5t29.5 29.5q6 23 -5 39t-18.5 31.5t-5.5 78.5t10 86q8 4 19 12 q0 10 6 25h12q4 20 19 57q16 10 39 33q2 12 12 37q6 8 70 63q8 0 26 7q10 14 31 32q20 0 63 13q25 18 52 39q14 2 32.5 -4.5t30.5 -4.5q10 12 31 27q27 6 78 6zM627 1157q-4 0 -45 -17.5t-45 -21.5q-6 -23 -31 -49q-8 -4 -39 6q-41 4 -70 -39q4 -10 13 -24q2 6 6 -33 q-4 2 -13 -6q-94 0 -108 -12q2 -10 0 -25q-10 -20 -25 -51q0 -20 -12 -64h-12q-4 -12 -15 -39h-12q-2 -10 -2 -18q0 -39 62 -39q29 0 94 11.5t90 11.5q14 0 22 -3q14 -12 33 -26q-6 -4 2 -6h10v12q4 4 0 20q18 0 64 7q72 10 223 30q8 6 19 19q0 2 -7 20q39 27 115 25 q-6 51 -14 68.5t-37 39.5q-10 2 -27 13q0 16 -6 51q-10 14 -24 37q2 8 0 20q-8 -2 -19 0q-4 8 -14 19q-68 43 -113 51q-16 -2 -45 0q-16 12 -18 12z" />
<glyph unicode="f" horiz-adv-x="1341" d="M897 1638q8 0 20.5 -5t14.5 -7q27 2 80 -4q18 -16 51 -35q12 2 33 0q10 -18 28 -45q12 -2 35 -12q8 -8 26.5 -19.5t47.5 -19.5q-4 -12 -12 -39l86 -74q-2 -6 0 -18h-58q12 -57 11 -68l-11 -6v-16q-16 -4 -45 -17q-8 -6 -22 -22v-19q-12 -4 -29 -16q0 -8 -6 -19.5 t-54.5 -29t-64.5 -12.5q-10 6 -29 16q-2 -10 0 -29q8 -4 17 -10q10 -18 4 -55q-8 -37 -29 -39q-6 0 -20 -2q-4 -8 -10 -19q-29 -12 -70 -10h-74l-10 -12q-18 -4 -47 0q-43 6 -49 6q-8 -4 -17 -12v-39q-14 2 -41 0q-18 -16 -45 -39q8 -10 17 -23q-2 -20 -4 -12q4 -4 4 -16 l-11 -6q2 -12 0 -39l-12 -7q-2 -12 -10 -45h-6q-4 -2 12 -22q23 -47 23 -64q0 -2 -7.5 -17t-5.5 -28l30.5 -30.5t20.5 -32.5q0 -6 -6 -10q-6 -45 -16 -109q-2 -4 -29 -55h-6q-2 -8 0 -23q16 -20 57 -69q20 10 68 6v-17h12q8 -12 29 -28h4v-6q18 -4 66 6q55 10 59 12 q14 0 33.5 -8t23.5 -10q10 2 29 0q6 -12 23 -33h10l28 -41q2 -14 -8 -28.5t-20 -26.5q2 -6 0 -19q-6 -4 -17 -10q-2 -12 -10 -35h-12q-8 -10 -23 -22q-16 0 -45 -7q-8 -8 -18 -16q-8 0 -23.5 11.5t-21.5 11.5q-18 -6 -51 -11l-17 11q-20 4 -61 -3q-49 -8 -58 -8 q-18 -2 -52 4.5t-50 6.5q-39 0 -61 -7q-12 -8 -29 -16q-27 -4 -68 6q-12 8 -28 17q-27 2 -76 -5q-57 -6 -80 -6q-25 0 -43 4q-10 10 -29 23q-16 0 -51 6q-4 8 -10 16q-10 2 -23 7v18q-10 12 -24 39q0 8 6 74q43 12 63 10q76 -4 91 -10q2 -2 7 -10.5t9 -6.5q8 10 18 23 q8 -2 27 0q6 10 12 22q8 2 17 2q12 0 32.5 -7t30.5 -7q10 4 29 12q-10 14 -6 17q12 2 32 6q12 37 0 74q37 31 35 51q-10 16 -22 45q2 20 0 61l-13 23q0 18 14.5 54t14.5 48q0 4 -4 56q-2 41 4 40q-4 18 -6 13q6 76 6 73l-6 7q-2 10 -10 39q-8 6 -17 16q-2 6 4 45h13 q-2 -6 -13 35q2 8 0 16q-12 4 -32 12q-8 8 -23 17q-43 -6 -119 0l-12 16q0 2 -67 -4v-6q-39 -2 -68 16l-23 29v23q-12 10 -24 28v35q31 18 92 45q31 -4 90 0q10 10 29 23q-6 -2 45 -6q41 -4 102 6q4 20 10 51q-4 16 -4 55q8 10 23 29q2 18 10 63q8 10 19 29q-6 10 -7 39 l11 6q6 8 41 23q6 8 16 16q6 -2 16 0q8 4 17.5 26.5t25.5 22.5q10 0 23.5 16.5t19.5 20.5v4q14 6 44 4t47 2q16 12 45 29q14 4 118 10zM772 1423q-16 -4 -31 -37q-10 -25 -20 -49q-20 0 -62 -4v-12q6 -41 17 -119q6 -2 18 0l4 17q10 2 29 0q12 -12 35 -29q12 2 33 0l16 -8 t18 -2q6 6 23 16q23 6 32 -1t20 -12t38 -9q8 4 16.5 14t8.5 22q0 25 -31 63t-33 48q-2 8 12 57q-12 0 -34 4q-4 8 -13 19q-53 32 -96 22z" />
<glyph unicode="g" horiz-adv-x="1488" d="M1083 1204q8 2 19 2q20 0 43 -8q14 -6 26 -12q14 4 54 0q16 -10 49 -25q8 0 26 -4q4 -10 13 -24h12q2 -23 12 -64l13 -6q0 -12 -6 -27l-7 -14q-2 -16 6 -72q-2 0 -30 -6q0 -16 -13 -41q-29 -29 -110 -29q-16 0 -25 7q2 6 0 16q-6 6 -16 18q-6 4 -25 7q-10 -12 -22 -25 h-12q-23 -29 -13 -70l19 -18q6 -37 0 -82q-2 -8 -6 -6v-12h-13q8 -8 13 -17q-6 2 -19 -6q-14 -27 -12 -37q14 -10 6 -10q6 -6 12 -18q-8 0 -22 -7v-18q-10 0 -25 -4v-12q-8 -4 -22 -13q-14 -20 -47 -69q-2 -12 0 -23q4 -12 4 -20q-29 2 -82 -4v-19q-10 -2 -23 -6v-6 q0 -6 -8 -10t-10 -9q4 -6 6 -22q0 -4 -31 -41q4 -2 12 -25q16 -2 41 0q4 10 7 19q41 25 84 6q14 -20 47 -47q20 0 57 -6q10 -4 29.5 -33t29.5 -33q27 2 78 0q6 -2 17 -6v-10q4 -2 15 7t15 9q10 2 23.5 -2t17.5 -4q0 -16 -2 -33q-2 -25 -16 -24q2 -8 6 -19q10 -18 94 -41 q2 -8 0 -24l-22 -17v-6q-8 2 -19 0q12 -29 19 -65q2 -6 16 -13v13q12 -2 35 0q6 8 12 18q8 -2 25 0q-2 -4 0 -18h-25q-8 -12 -16 -35q4 -27 4 -78q-4 -10 -10 -29q-6 -2 -19 -6q2 -14 0 -41q-16 -16 -35 -47q2 -8 0 -22q-18 -12 -47 -37q-4 -12 -18 -29q-29 2 -82 -6 l-25 -25q-18 2 -59 -4q-6 -8 -16 -18q-16 0 -48 -6q-8 -8 -18 -19q-33 -4 -94 -16q-104 -31 -148 -25q-14 6 -34 13q-6 0 -33 -10l-27 -9q-96 -16 -153 0q-6 10 -17 25q-18 12 -53 18q-51 -6 -141 4q-2 8 -7 19q-8 0 -24 6q-4 8 -10 18q-20 -2 -60 4v6q-12 4 -35 19 q-2 10 -12 22h-12q2 8 0 19q-8 0 -25 6q2 8 0 18q-29 18 -63 48v16q-10 14 -25 41q-14 55 0 172q6 49 31 82q0 2 35 24q2 25 28 70q4 2 5 6q0 8 -21 19q-6 10 -4 28q4 20 4 25q-8 27 -12 35q-6 2 -19 6q-6 20 -4 63q2 41 10 60q4 8 39 43t45 41q4 2 14.5 2t14.5 2 q10 20 29 47q18 6 41 24l6 48q2 2 18 22q2 23 -16.5 52.5t-18.5 43.5q6 18 11 70q0 12 -9.5 49t-7.5 51q2 20 34 44t34 44q-2 14 2 41q14 14 31 37v10q12 2 35 7q16 23 34 47q18 -2 54 0q6 10 18 24q8 -2 23 0q8 8 18 17q37 14 100 0q10 -8 23 -17q18 0 53 -6q2 -2 19 -18 q14 0 37.5 13t37.5 11q10 -2 39 -21.5t56 -13.5q16 12 43 29q20 -10 51 -18v12zM629 1044q-8 0 -19.5 -14t-15.5 -14q-23 2 -66 0q-4 -2 -24.5 -22.5t-22.5 -24.5q4 -10 0 -41q-10 -10 -22 -25q-2 -6 12 -47l-53 -29q-4 -10 -4 -20q0 -31 39 -51q-18 -53 -7 -82l60 -60h12 q-2 -8 0 -18q8 -2 29 0l6 25q14 0 47 -7q35 -12 47 -28q0 -8 12 -25l7 -12q31 0 88 6q2 12 12 37q4 2 10 4v25h19q2 8 16 20q12 -2 37 2v12q12 10 29 25q-18 45 -17 53q10 6 23 17q4 12 0 65q-2 18 -66 154h-10q0 8 -6 22q-8 2 -19 6q0 2 -6 19q-16 8 -51 2q-39 -4 -49 -2 q-2 0 -17.5 15t-29.5 13zM465 473q-10 0 -25.5 -12t-23.5 -12t-23 -5q0 -8 -6 -18q4 -12 6 -25q14 2 41 -4q12 -8 14.5 -25.5t10.5 -20.5t28 -7q0 -4 7 -12q27 63 12 112q12 4 12 7q-49 22 -53 22z" />
<glyph unicode="h" horiz-adv-x="1595" d="M319 1647l30 -11q30 -12 40 -24q25 -31 28 -31t15 -6q6 -8 19 -23q10 -6 34 -18v-35h19l4 -12q10 -4 78 -41v-19q-8 -2 -25 -10q6 -8 6 -18q-18 -2 -47 -13q-4 -4 -22 -53q-2 -2 -13 -12v-29q80 12 95 0q2 -12 6 -28q8 -4 18 -13q-2 -14 -8 -26.5t-23 -44.5h-18 q2 -8 0 -17q10 -4 22.5 -13t26.5 -17q-2 -12 0 -29v-12q2 0 4 24h31q-2 16 0 17q27 16 53 24q8 -2 23 0q8 6 12 31.5t15.5 33t50.5 23.5q10 2 35.5 -5t27.5 -7q49 4 135 -6q6 -8 13 -17h36q72 -49 75 -52t24 -42v-24q37 -66 125 -76v-19v-22q-12 -12 -25 -31v-106 q23 -2 53 -11q2 -8 6 -18l-5 -9t-11 -20v-18l-18 -6q-2 -12 6 -22.5t6 -24.5h-12q-12 -43 -13 -47q10 -8 25 -23q4 -88 0 -94q-8 -4 -19 -13q16 -4 54 -12q0 -29 0 -28q8 -8 22 -19q-2 -14 -4 -41l-18 -6v-47h-25v-29q2 0 12.5 3t18.5 1q-6 -6 -12 -16h12q2 -10 6 -25h10 q4 0 31 -34v12q18 20 59 47q12 -2 35 0v-25q-10 0 -24 -6q-2 -6 -11 -16v-31q18 -2 39 -18q-2 -8 2 -23q10 -6 23 -16q6 -10 12 -60q6 2 25 7h16q2 -10 6 -25q-2 8 -6 -6l12 -10q10 -39 -24 -54q-18 0 -53 -6q-2 -8 -11 -18q-18 2 -47 0q-8 -2 -23.5 -19.5t-41.5 -21.5 q-98 -12 -129 -6q-10 8 -25 18q-43 8 -76 0l-12 -12q-6 0 -18 6l-11 6q-45 -2 -131 6q-4 0 -51 19q-31 10 -59 10l-6 12q-49 6 -78 0q-8 -8 -23 -18q-37 2 -106 0q-174 -12 -183 -13q-6 2 -25.5 10.5t-27.5 8.5l-35 -12q-158 -4 -231 6l-10 12q-18 4 -39 8q-8 2 -21 21 l-12 6q-4 16 5 50t18.5 37t23.5 7q0 -6 6 -22q8 -4 19 -13q-4 0 10 13q-6 16 -4 16q-4 0 -6 18h22q16 14 41 29q31 -2 84 6q4 8 10 19q8 0 19 6l6 12v29q0 2 16 28q-6 14 -10 60l4 20q2 18 2 27q-8 12 -18 31q2 14 0 41q-8 6 -19 16q-2 12 -2 24q0 25 15.5 64t17.5 53 q0 16 -9 37t-9 29t3 31.5t3 33.5l-12 6q0 8 6 16l6 7q4 18 0 47q-6 33 -6 41q0 4 8 37q6 27 4 47q-12 20 -25 51q-2 27 15.5 51.5t17.5 40.5q0 10 -2 21q-2 4 -30.5 28.5t-22.5 49.5q10 6 22 16q47 61 37 100q-4 12 -29.5 25.5t-30.5 22t-1 14.5q4 8 2 16q-6 2 -12 10 q-39 4 -117 19q-6 8 -12 18q-8 2 -54 4q2 6 17 54q-8 8 -29 59q4 10 12 25q8 6 62.5 17t66.5 11q4 0 21.5 -6t25.5 -6q39 13 88 25zM874 969q-51 -6 -53 -78l-6 -35h19q23 -8 22 -35q0 -20 -16.5 -28.5t-51.5 -6.5q-43 2 -55 0q-2 6 -6 29v19h-35q-14 -63 -6 -72q8 0 16 -6 v-23q-39 -51 -69 -59q-6 -2 -29 2q-12 2 -24 -14q-27 -35 -35 -113l10 -4q-6 -6 -4 -19l16 -6q2 -8 0 -18q-12 -4 -35 -17v-24q-4 -20 0 -29q8 -6 17.5 -14t5.5 -27q0 -4 -23 -24q2 -6 0 -17q12 -4 23 4q4 -2 18 -22q6 -4 19 -13q-12 -8 -6 -16q2 -6 6 -11t16 -7q8 2 19 6 v16q4 2 7 -4t5 -6q14 2 41 0q4 -8 12 -18q8 4 23 12v16h12q6 14 18 31q10 4 123 -19q2 18 13 60q-6 2 -13 12q4 2 19 23q12 2 35 0q2 0 8 -9.5t14 -7.5q10 4 25 11q-14 94 -6 118h6q-2 0 41 41q2 10 0 25q-8 0 -23.5 7t-23.5 87q-37 4 -41 6t-29 23v18q43 10 94 6 q-8 25 -24 82q74 45 73 72q0 8 -2 16q-6 0 -12 13q-12 0 -35 6q-8 10 -24 22q-14 -4 -41 -6v6q-8 6 -20 13.5t-28 5.5zM893 938l41 -8q-2 -2 -6 -2q-2 -6 -6 -19q-12 6 -13 6l-6 -12h-29q0 10 7 31zM1239 567v-12l12 -6q15 22 -12 18z" />
<glyph unicode="i" horiz-adv-x="1257" d="M596 1620q12 0 43 -16.5t37 -24.5q4 -16 16 -39q14 -4 41 -16q4 -10 17 -29q16 -10 41 -35q8 -20 2 -63q-4 -33 -9 -66h-41q-2 -2 -14 -17.5t-12 -17.5q6 -12 4 -28q2 0 12 -6q-4 -6 -6 -23q-53 -4 -45 -6q-2 2 -41 14q-31 8 -49 4v-12h-23q0 -2 -6 -10v-6q-12 -2 -20 3 t-15 7q-27 0 -73 12q-4 12 -17 39q-16 16 -39 51q-6 16 -6 82q0 68 6 84q2 8 18.5 14.5t20.5 12.5q6 20 17 51q27 0 73 6l7 12q32 21 61 23zM500 1178q10 2 22 2q41 0 105 -19q57 -16 71 -28q2 -10 7 -23q8 -2 22 -6q2 -10 6 -23h10l19 -34h4q0 2 -10 -29q4 -14 6 -51 q-6 -18 -19 -56q16 -10 48 -34q-2 0 0 -39l-19 -7q4 -25 0 -67q-2 -8 -10 -8l-12 2v-23q2 0 28 6q2 -8 17 -22q0 -4 -11 -51q14 -8 7 -35h-13q-6 -10 -16 -23q2 -16 16 -57q-12 -8 -12 -10q8 -4 18 -13q-6 -31 -22 -102q20 -16 45 -55q0 -8 -6 -15l-6 -8q-8 -37 18 -67 q2 -4 27 -13q14 -4 41 -6l6 -16q2 0 4 16h57q4 -10 6 -10q10 2 29 4q-6 -10 -12 -27q0 -8 6 -34q10 8 33 28l-4 23q4 2 10 10q16 -2 51 -16q4 -8 12 -17q20 0 62 -12q20 -10 38.5 -59.5t12.5 -81.5l-39 -52q-37 -39 -74 -45q-37 4 -114 7q-14 -2 -61.5 -10.5t-67.5 -6.5 q-10 0 -44 6t-53 4q-29 -6 -34 -6q-16 8 -39 19q-55 8 -148 10q-211 6 -205 6l-6 10q-35 -4 -106 -4q-20 2 -92 29q-8 -2 -27 4v18q-8 4 -19 11q2 10 7 41q-4 8 -7 22q6 47 52 62q25 8 78 2q57 -4 75 -2q10 10 29 22q23 2 74 6l4 17q14 -2 16 -2q18 -2 27 -4h4q16 6 33 12 q23 20 28 143q2 84 6 168q6 23 17 64q-4 31 -6 100q8 33 6 41l-10 22q4 37 4 107q-6 12 -17 35h-10l-18 39q-18 12 -47 12q-18 0 -59.5 -6t-57.5 -6q-23 2 -135 22q-14 0 -35 6q-2 14 -12 41q-8 12 -19.5 27.5t-7.5 34.5q0 10 33 35v10q109 33 137 28q12 -10 39 -22 q31 2 80 0q2 0 20 -10q12 -8 31 -6q37 2 61 22q-1 9 17 23zM961 332q39 6 38 -13q0 -6 -16 -4q-35 -6 -35 4q0 4 6 9q6 4 0 4h7z" />
<glyph unicode="j" horiz-adv-x="929" d="M672 1569q29 -2 88 -24.5t65 -39.5q-4 -18 0 -55q12 -10 29 -35q0 -14 -8 -25.5t-17 -19.5q6 -20 7 -51h-7q-2 -2 -16 -29q-12 0 -39 -6q-8 -10 -22 -22q-8 2 -23 0q-4 -8 -12 -17h-39q-53 -2 -92 23q-2 8 -8.5 14t-13.5 6t-11 2q-2 10 -12 23h-11v41q-14 12 -34 39 q-2 6 -2 20q0 6 -5 14q23 16 48 46q-4 16 0 45q6 18 54 34.5t81 16.5zM541 1161q18 0 53 -6q43 -6 49 -6q18 2 51 0q8 -8 17 -16q23 0 63 -7q6 -4 51 -45q2 -6 2 -15t19.5 -20.5t23.5 -21.5q10 -31 -6 -35l6 -141h-6q-4 -16 -6 -17v-22l12 -12v-17v-39q0 -59 -6 -79 q-4 -6 -16 -17q-4 -20 7 -35.5t9 -34.5q-10 -10 -22 -45q-2 -39 6 -67l18 -21q19 -22 15 -47l-11 -12q-4 -20 -8 -41q-6 -33 -8 -33l4 -22q14 -41 0 -62l-10 -6q-4 -14 0 -102q0 -6 8 -25.5t8 -25.5l-16 -5q0 -29 0 -28q0 -12 20.5 -34t18.5 -40l-10 -6v-23q-8 -10 -19 -28 q-10 -43 0 -148q-31 -8 -37 -30.5t-14 -49.5q0 -8 -4 -22q-8 2 -19 0q-8 -6 -22 -17q-23 0 -62 -6q-6 -10 -16 -22q-8 2 -18 0q0 -6 -7 -17q-10 0 -32 -6q-4 -6 -13 -16q-12 0 -39 -6q-6 -6 -16 -17q-25 -10 -84 -19t-86 -3q-10 8 -22 16q-14 -2 -41 0q-14 12 -39 29 q-10 -2 -29 0q-4 6 -12 16q-8 0 -23 6v17q-29 14 -73 51q-4 20 -23 63q-14 14 -39 46q-6 20 -22 67q-10 12 -23 33q-20 92 0 147q14 14 39 41q6 8 16 39q8 20 29 35q55 35 129 35q35 0 59 -12q4 -10 17 -23q18 -4 51 -16q2 -8 10 -25h13l34 -39q-14 -55 0 -112q27 0 72 -7 q2 -4 12 -12q-10 -16 -28 -33q-12 -4 -32 4.5t-32 8.5q-8 0 -16 -2l-4 -17h-19q-2 -8 -10 -22h-12q-16 -37 -4 -58q2 0 16 -10q0 -4 6 -18q29 12 33 12l12 -12q35 -8 68 0q6 8 16 18q8 -2 19 0q-2 6 0 16l10 13q-2 23 0 67h12q6 4 0 23q8 -2 23 0v10q6 4 22 12v17l-18 6 q0 12 6 39l12 6q-2 14 0 41q10 10 23 27q0 14 6 40l10 7q-6 4 -6 16l12 6q-8 25 -12 84q8 12 18 29v51q0 8 -9 35.5t-9 38.5l12 10q4 14 -2 35.5t-4 34.5l12 16q-4 31 -6 80l8 35q6 27 2 43l-16 28q2 25 0 74q-8 12 -16 29q-2 18 8 50t8 46q-2 27 -29 61q-6 4 -16 13 q2 8 0 16q-12 8 -45 6q-39 -2 -51 0q-10 10 -29 23q-18 4 -59 2q-41 -4 -60 -2q-12 6 -28 12q-2 0 -22.5 -6t-22.5 -6q-57 -2 -86 22q-6 23 -11 41q-8 35 6 62q4 8 28 31.5t28 25.5q35 10 73 -6l7 -12q10 0 26.5 9t18.5 9q25 -4 73 -6q40 6 97 12z" />
<glyph unicode="k" horiz-adv-x="1466" d="M127 1638q57 4 178 -24q4 -23 6 -27q6 -10 23 -14q31 6 88 -6q20 -10 35 -54q20 -55 26 -61t17 -14q-2 -8 0 -23q8 -2 28 -12q-16 -6 -22 -6l-6 -19q2 0 6 -10q10 0 51 -12q2 -31 0 -31q-14 -2 -4 -70q-29 -16 -59 -34q2 -14 0 -41q0 -2 -6.5 -9.5t-6.5 -9.5l13 -12 q4 -14 12 -41q23 0 22 0q2 -6 13 -18q-14 -39 -13 -54q10 -16 25 -47q2 -16 10 -123q2 2 17 2q6 0 8 4q-2 8 0 23q8 4 22 12q8 18 37 41q-2 0 41 -6q39 -4 82 25q4 12 0 41q-8 18 -25 18q-8 0 -24 -6t-21 -6q-4 0 -13 3t-17 3v16l-13 13q0 8 13.5 53t17.5 47h17q20 8 53 18 q16 -4 37 -6l4 13q29 2 90 10q23 12 57 24q20 -2 60 0q2 0 21.5 9.5t25.5 9.5q4 -2 22.5 -10.5t24.5 -8.5q16 8 35 19q49 8 90 0q8 -10 22 -19q12 4 31 6q27 8 35 7q25 -6 57.5 -54.5t32.5 -89.5q0 -8 -2 -16t-20.5 -26.5t-26.5 -20.5q-8 2 -25 0q-10 -10 -35 -25 q-29 4 -82 0v-10q-8 0 -24 -6q-4 -10 -17 -25q-43 -29 -159 -28q-18 -57 -23 -66q-10 0 -24 -6q-2 -4 -7 -17q-12 2 -34 0q-16 -8 -42 -38.5t-40 -38.5h-6q-2 -10 -7 -29q0 -10 7 -25q10 -2 28 -4q4 -49 19 -112q10 -2 22 -6q0 -10 6 -23q2 -2 25 -10q12 -4 12 -15.5 t4 -27.5h19q4 -10 18 -25q16 2 47 -6q8 -6 12.5 -31.5t10.5 -31.5q14 -4 41 -13q12 -18 41 -47q10 -2 24 -6q8 -8 10.5 -23.5t8.5 -23.5q8 -14 30 -23q33 -10 39 -12q6 -10 19.5 -21.5t81.5 -23.5q53 -10 69.5 -30.5t16.5 -41.5q0 -14 -39 -84q-2 -16 -19 -34h-57l-12 -13 q-63 -16 -135 -12q-119 8 -160 6q-66 -4 -53 -6q-25 12 -70 29q-29 -6 -96 -4q-10 6 -29 16q0 61 6 72q8 4 19 10q-2 6 0 18q6 8 16 25q41 -4 100 4q-6 23 -22 66q-8 6 -19 18q0 16 -6 53q-12 14 -28 41q-2 23 -13 64q-18 14 -47 43v22l-12 6q-6 18 -29 41q-10 -2 -24 0 q-4 6 -17 19q-2 -10 -6 -25q-12 -10 -35 -14q-31 -4 -43 -8q-2 -8 -10 -19q-18 -6 -52 -22.5t-73 -46.5q-6 -23 -2 -52q4 -23 8 -43q10 0 25 -6q-2 -8 0 -18q-10 -25 -19 -29q6 -16 7 -18l-19 -19q0 4 6 -57q20 -2 60 4q0 12 34 25q6 0 42 -13.5t40 -15.5q2 -8 7 -19 q8 0 24 -6q10 -16 29 -35h12q-2 -10 0 -30q-12 2 -35 0q-12 -10 -30 -23q-12 -2 -41 -6l-13 -12q-49 -14 -123 6l-18 12q-18 2 -47 -6q-16 -6 -35 -12q-25 -6 -94 -6q-35 8 -47 6q-6 0 -44 -5t-59 -5q-57 0 -73 28v23q-8 12 -17 22q-12 23 -8 25q8 16 31 43q10 6 62 20.5 t67 14.5q14 -4 41 -13v-12h53q-18 33 -18 37v4q20 10 22 117q2 123 8 136t11 26q-4 4 -18.5 51t-16.5 59q-2 18 6 39q6 12 12 27q-2 12 0 35q-6 18 -6 30q8 29 6 41q-8 10 -18 29q-2 16 4 39q8 31 8 33q2 25 -5 56.5t-7 43.5q0 35 17.5 109.5t17.5 115.5q0 25 -7 45 q-6 12 -16 29v43q-8 10 -18 29q2 -16 6 65q-43 6 -76 6l-6 17q-27 -2 -78 0q-55 6 -100 71q-14 29 0 29q8 51 17 62.5t54 25.5q13 6 29 12z" />
<glyph unicode="l" horiz-adv-x="1331" d="M444 1638q10 2 54.5 -10t53.5 -20.5t23 -20.5q23 -4 37.5 9.5t16.5 13.5q14 4 33 -2q12 -4 24 -11q-2 -10 0 -28q10 -8 23 -23q12 -23 0 -80q14 -6 47 -18q-2 -2 0 -16q-12 0 -35 -7q-12 -14 -29 -34q25 -53 29 -86q-4 -8 -6 -29l6 -10q-12 -20 -25 -47q0 -2 7.5 -17.5 t7.5 -21.5t-2 -6q-14 -10 -7 -41q16 -12 35 -29q2 -10 13 -35q-10 -4 -29 -12q18 -76 10 -137q-8 -14 -16 -35q2 -25 0 -74l-7 -7q-6 -7 -6 -16q10 -8 23 -24v-23l12 -6v-22q14 -23 35 -70q-2 -6 -6 -16q-10 -2 -29 -13q-2 -39 6 -102q10 -4 29 -12q10 -16 35 -45 q10 -2 22 -13v-41v-10q14 -25 93 -92q0 -8 6 -16q16 -8 37 -9q16 0 49 5.5t51 5.5q16 0 29 -2q18 -12 41 -25q20 -2 51 -4q8 -18 16 -47v-29q12 -6 25 -16q2 -8 0 -45q-4 -37 -6 -43q-16 -6 -47 -23q-4 -8 -17 -22q-47 -29 -162 -29q-12 0 -49 6t-53 6q-6 -2 -35 -8t-45 -4 l-18 12q-20 -2 -64 0q-18 4 -39 11q-35 -8 -121 -11l-24 11q-53 10 -119 -7q-160 -33 -266 -16q-23 10 -62 29q-23 6 -53 22q-27 39 -6 115q27 63 32 69.5t121.5 26t145.5 14.5l12 -12q8 4 23 6q4 0 37 -10q27 -6 45 -2q10 4 27.5 34t29.5 36h4v41q-2 2 -10 4v63 q-2 6 -10 39q-8 25 -9 43l13 17q-2 18 0 57q8 16 16 41q-4 16 0 57l12 6q4 18 5 43q0 29 -7.5 81t-9.5 71q-2 96 12 149q12 25 7 23q-8 29 -19 63q-2 25 10.5 46.5t14.5 23.5v70q-4 0 -13 4q2 27 0 76q-10 10 -22 28v10q-2 4 -19 13l-16 12l-19 15q-20 16 -51 30 q-10 2 -34.5 -10t-28.5 -12q-33 -8 -57 -7l-17 13q-31 -6 -80 -13q-37 0 -77.5 22.5t-55.5 47.5q0 8 -6 29q-2 6 -6 16q4 33 41 53v11q8 2 29 6q59 23 92 16l12 -10q29 -8 80 0q8 4 20.5 9t24.5 1q4 0 19.5 -14.5t27.5 -14.5l6 13h17q7 14 34 28zM1278 184q6 -29 12 -63 q-4 -2 -12 -17q-35 4 -29 5q-8 6 -18 12q2 14 12 41q8 -2 19 0q4 8 16 22z" />
<glyph unicode="m" horiz-adv-x="1507" d="M1024 1225q16 0 55 -19.5t54 -31.5q0 -8 6 -19q20 -2 57 -22v-17l23 -29q18 -8 41 -30q-2 -12 0 -39q10 -12 22 -29q-4 -27 -6 -63q16 -23 35 -52q2 -10 -4.5 -21t-8.5 -13h-16q0 -10 -6 -23q18 -8 47 -24q0 -6 4 -17q-2 -4 -29 -41q6 -10 7 -35q-4 -10 -18.5 -18 t-14.5 -18q0 -12 16 -43q-2 0 -18 -17q12 -23 35 -53q8 2 22 0q12 -10 31 -29q-4 -2 -19 -22q-27 8 -34 6q-4 -4 -17 -12q0 -8 1 -19.5t9 -9.5q-4 -23 -4 -16q-2 -16 4 -48q10 -4 19 -10q4 -23 -3 -35t-14.5 -23t-13.5 -22q2 -2 4 -2q10 2 21 2l-6 2q33 4 32 -6 q-2 -2 -10 -2q12 -2 41 -6q14 -43 0 -57q4 -6 6 -19q88 -39 88 -94q0 -18 -8 -37q-2 -8 -16 -14q-20 -6 -23 -8q-16 -16 -47 -35q-20 -6 -65.5 -6t-65.5 -6q-8 -8 -18 -17q-29 -8 -64 0q-2 6 -6 17q-29 0 -96 6l-25 12q-16 0 -40.5 -8t-45.5 -4q-10 10 -29 22q-6 2 -32 -6 q-25 4 -70 6q-2 0 -32.5 -6t-47.5 -4q-6 0 -33.5 9t-48.5 7q-2 0 -21.5 -6t-29.5 -6q-12 10 -35 25q-12 0 -35 4q-10 12 -28 30h-17q-8 -12 -22 -30q-37 -18 -99 -17q-23 0 -36 8.5t-15 8.5q-31 -2 -104 0q-14 10 -35 18q-16 -6 -51 -6q-12 4 -13.5 15.5t-3.5 13.5h-18 q-2 0 -17.5 16t-17.5 19q-6 14 -6 30q0 49 37 49q10 0 21.5 -6t52.5 -80h22q10 16 17 29v6q10 4 24 12q-47 111 -35 271q6 27 11 61q2 20 -7.5 61.5t-9.5 49.5q8 57 12 172q-8 23 -18 57q-2 27 4 59.5t2 55.5q-4 25 -28.5 44t-51.5 13q-23 -10 -22 -10q-8 6 -25 16 q-2 14 0 41q2 2 13.5 18.5t11.5 26.5l-19 19q-2 10 -6 29q16 4 47 0q4 -10 17 -25q-4 2 47 6q31 -4 80 -6q20 12 22 12q12 -2 28.5 -18.5t41.5 -16.5q29 12 80 29h22q10 10 29 23h29q10 12 47 24q18 0 55 -14t43 -14h23q0 -8 6 -19q27 -27 63 -29q2 0 22.5 3.5t28.5 3.5 l6 12q10 -4 39 -6v6q23 2 58 16q4 20 35 45q20 -4 63 -4q8 6 16 10q15 13 25 13zM535 1040q-12 -2 -29 -6q-2 -8 -6 -16q-16 -12 -51 -41l-7 -6q2 -8 0 -23q-14 -10 -10 -10q6 -2 6 -10q-2 -10 -2 -15q2 -2 35 -22q-2 -12 0 -35q-41 -18 -45 -23.5t-6 -50.5l-12 -22 q4 -16 0 -47h-11q-16 -23 -41 -51l-6 -7q-2 -6 12 -57q-4 0 -18 -16q2 -4 12 -7q4 0 13 17q8 4 57 -17q0 -18 -12 -63l-11 -6q4 -12 5 -45q0 -2 -10.5 -23.5t-6.5 -40.5q10 -14 23 -28q-2 -14 0 -41q10 -12 22 -29q2 -25 6 -70q2 2 29 7q-2 4 -6 18q31 4 47 -41l10 -6v-17 q12 -2 41 -6q8 16 0 17q18 10 47 35q4 16 17 47h6q0 4 -6 16l12 6q-8 39 -6 127l6 10q6 9 4 19q-14 14 -33 45q-6 20 2.5 51t8.5 41q0 16 -11 45l-12 6q-4 27 8 60q14 41 15 51q2 20 -8.5 59t-8.5 55q6 16 17 52h12q0 12 6 35q-16 14 -47 51v22q-59 6 -57 6zM942 926 q-2 0 -9 -8.5t-20 -32.5l35 -35q-2 -16 -10 -39h-18q0 -8 -7 -18q-8 -2 -28 -11q6 -2 12 -12q-2 -20 0 -57q4 -2 11 -7.5t18 -15.5q29 4 41 0v-12q4 -6 10 -10q0 -10 -6 -25h-29v-4q4 -6 6 -12q-12 -8 -28 -35q-2 -20 13 -48t15 -36q0 -20 -37 -34l-37 -15q0 -6 17 -17 q27 -14 47 -6l16 29q27 -2 74 0q6 6 19 12q0 33 6 74q-37 12 -76 31q0 18 12 45q12 0 35 12q-2 8 0 23q4 12 10 22q6 20 -6 29q-2 2 -13 2t-16 4q-8 14 -28 41q27 18 57 45q8 23 19 57q-12 4 -35 17q-2 10 -6 18q-10 0 -35 6q-11 9 -29 23zM942 397l-4 -24q4 -2 10 -4v-19 q12 0 35 -6q6 -4 -6 -10q10 -2 29 -6l18 6v35q-12 3 -82 28zM518 287q-8 -2 -2 -13q6 -12 6 -14q0 -4 -10 -6q-4 13 6 33zM442 223v-10h13q-3 4 -13 10z" />
<glyph unicode="n" horiz-adv-x="1488" d="M801 1153q33 4 93 -3t79 -20q14 -18 55 -43q29 2 86 0q25 -8 70 -20q4 -43 0 -51q-4 -6 -43 -19l-6 21q-12 -8 -11 -10q0 -8 6 -27q10 -8 21 -16q-2 -18 0 -54l33 -43h10q-4 -18 -10 -39q-8 0 -17 -4q-6 -18 -4 -39q6 -29 4 -43l-10 -16q-2 -8 0 -43q4 -41 4 -59 q16 -6 49 -15q-16 -37 -22 -65q0 -6 6 -10q2 -6 -6 -17v-10q10 -10 22 -27q-6 -18 -10 -49q6 -16 17 -33q6 0 14 -6q0 2 -4 -26q4 0 10 -11q10 2 27 -6q6 -20 16 -57q2 0 6 10h43q0 -16 10 -49q6 -10 24.5 -18.5t25.5 -14.5q-2 -6 0 -14h10q14 -6 27.5 -33t13.5 -49 q0 -12 -6.5 -18.5t-18.5 -14.5q-8 -16 -26 -43q-4 -2 -55.5 -21.5t-59.5 -21.5q-10 -2 -32.5 2t-24.5 4q-23 0 -99 -6q-68 -6 -102 -4q-66 4 -60 4q-2 0 -19 -8t-28 -8q-4 8 -11 14t-42 19q-18 -2 -59 6q-27 14 -27 47q0 18 10 59q-18 8 -53 23q-12 -8 -29 -23q0 -16 -4 -43 q-8 -16 -43 -37q-51 -31 -76 -32q-8 4 -32 6q-4 0 -11.5 -3t-5.5 -3q-10 0 -34.5 3t-34.5 3q-10 -8 -27 -17q-47 -12 -135 0q-23 2 -37 0q-133 -16 -166 27q-2 10 -12 33h-10q-27 10 -21 63q10 90 109 90h35q23 -2 30 -2q45 0 58 21v16q6 23 4 33l-11 20q2 25 0 70 q-8 14 -16 33q-4 47 6 80q14 12 31 32v39q8 10 16 27q2 10 -6 35.5t-10 27.5q4 39 6 103q-8 16 -20 43v16q-2 20 -13 49q-6 0 -16 4q2 8 0 17h-16q-6 10 -21 22q-12 -2 -37 4q-4 8 -12 17q-2 2 -10.5 2t-10.5 5l-6 15q-4 2 -11 2t-9 2q4 41 4 39q0 4 -11.5 28t-11.5 42 q0 8 2 16q4 2 11 17q2 0 16 3t21 1q4 0 18 -5t20 -5q20 8 54 16q55 8 102 -6q61 -16 76 -43q0 -8 4 -21q12 -2 33 -6l6 -10q47 -18 69 -16q25 2 49.5 38.5t41.5 38.5q8 0 22 2q14 18 43 43q31 15 113 23zM827 928q0 -6 -5 -16.5t-15 -39.5q-18 2 -59 13q-2 -8 -11 -23 q-10 -6 -26 -20q-10 -14 0 -23h-13q-6 -6 -36 -10q2 6 -7 16q2 -8 0 -22q-6 -6 -14 -17v-20q-18 -12 -39 -33v-10q-18 -8 -59 -27q-25 -31 -70 -75q8 -31 10 -82v-11q4 -23 11 -22q14 0 16 -5t6 -16q0 -4 -6 -16q-10 -4 -27 -16q-6 -18 -4 -54q0 -2 17 -26q2 -20 -17 -60 q2 -2 4 -16q16 -2 43 -10q8 -12 33 -33v-4q14 2 43 4q12 -4 33 -10q-2 -16 0 -17q6 2 16 0q23 -8 64 -26l6 -11q12 -2 76 21l4 10q39 4 98 23v10l10 6q6 10 6 21q-2 16 -2 22q6 -4 29 -10q10 55 10 47q0 8 -14 35.5t-12 40.5q6 2 16 6v16q2 0 10 4q2 8 -4 40t-12 42l-10 4 q-4 14 5 51t15 46l10 6q2 6 -6 21.5t-8 21.5v96q-12 6 -39 16q29 39 29 78q0 16 -7 30.5t-42 20.5q-27 7 -56 13z" />
<glyph unicode="o" horiz-adv-x="1208" d="M467 1219q2 2 115 -5q20 2 57 5q23 -10 57 -23q14 10 52 18q23 -2 45 -26.5t24 -26.5q12 -6 31 -6q27 -2 39 -4q6 -8 16 -18q6 2 17 0q10 -6 17 -28t14 -31t38 -18t41 -20.5t19.5 -43t15.5 -42.5q16 -14 39 -41q-4 -8 -6 -18q29 -27 35 -51v-35h12q-4 -4 -6 -10 q2 -2 12 -19q14 -100 0 -137q-10 -8 -18 -16q-2 -18 5 -45t7 -31q-6 -23 -12 -58q10 -14 6 -22q-16 -4 -35 -29q-2 -20 14.5 -55t14.5 -55q0 -14 -17 -33q-20 -27 -22 -29q-6 -25 -29 -69q-16 -8 -47 -29q-2 -2 -6 -18h-11q-2 -6 -6 -23q-8 -2 -22 -10q-2 -8 -6 -19 q-14 -2 -41 -10q-4 -8 -11 -18q-23 2 -63 0q-16 -8 -53 -23l-4 -12q-18 -2 -41 -6q-10 -6 -29 -17h-29q-172 -25 -190 -22q-33 14 -92 35q-14 -2 -39 0q-8 10 -23 22q-31 4 -82 29q-10 16 -28 41q-25 8 -64 33q-4 20 -16 57q-29 47 -64 145q6 20 13 68q-10 20 -25 53 q4 23 6 68q-6 20 -10 41q2 10 4 16q-2 20 -4 29q6 37 4 41q0 8 -14.5 26.5t-14.5 36.5q2 39 29 80l12 6q4 14 0 41v16q6 27 23 76q23 41 63 62v6h13q8 29 34 82q8 2 29 10q8 18 33 47q12 0 29 4q14 14 40 35q44 19 105 23zM668 967q-4 -20 -19 -70q-4 -2 -22 -6 q-16 2 -58.5 12t-68.5 10q-16 0 -33 -4q-20 -14 -57 -35q-10 2 -25 0v-12q-14 -18 -51 -51q-14 -2 -29 -6q-6 -8 -2 -29q2 -20 2 -22q-10 -4 -19.5 -14.5t-9.5 -41.5v-36q-8 -6 -22 -23q8 -8 29 -23q-33 -96 -23 -127q2 -10 24.5 -20t26.5 -14q16 -37 41 -80q12 -8 47 -5 t50 -1q29 -23 40 -35q-2 -8 0 -17q10 -2 35 -6q41 -18 115 -41q12 4 41 6q16 -8 45 -22q10 16 35 45q25 10 57 29v18q10 2 10 14q0 4 -4 25q-4 18 0 31q18 10 39 33v57q8 2 19 12q0 4 -7 12q-8 -2 -22 0q-16 4 -21.5 21.5t-7.5 36.5q2 0 4 10q12 0 41 6q2 31 -6 86 q-18 14 -39 29q-6 18 5.5 38.5t11.5 24.5t-9.5 40t-13.5 40q-12 4 -29 12q-4 14 -18 35q-18 2 -61 17q-2 8 -7 18q-11 7 -34 23z" />
<glyph unicode="p" horiz-adv-x="1345" d="M762 1192q16 2 55 -8q33 -8 43 -15q4 -12 12 -24q8 2 23 0q4 -10 16 -23q14 -4 45 3.5t48 2.5q12 -10 28 -22q12 0 35 -6q4 -8 12 -19q6 2 17 0q16 -10 28 -39q16 -37 25 -47q27 -12 59 -53q-2 -10 2 -33q14 -12 35 -39q2 -23 12 -75q12 -14 35 -41q0 -6 -6 -23 q-10 -6 -22 -16q-8 -29 22 -105q10 -25 6 -28q-6 -4 -20.5 -67.5t-14.5 -76.5q0 -2 7.5 -18.5t3.5 -26.5q0 -8 -29 -28q-8 -20 -11 -67.5t-11 -66.5h-7v-12q-16 -12 -39 -39q-4 -6 -14 -45q-6 -29 -20 -37v-4q-12 -10 -37 -14q-31 -4 -40 -12.5t-22 -26.5q-2 0 -39 -16 q-20 0 -59 -7q-55 -14 -149 -34q6 2 -91 12q-33 -8 -47 0q-12 6 -28 74q-18 -4 -17 -4q2 -33 4 -76q25 -6 64 -17q0 -35 0 -34q-25 4 -86 12v-19q2 -8 12 -22l45 -23v17q12 0 41 -6q2 2 12 -11q-37 -20 -36 -32q0 -8 12 -15q12 -6 43 0t49 0l53 -35q0 -18 10 -51 q16 -12 35 -35q4 -25 13 -73q-10 -2 -29 -13q-63 -45 -139 -45q-14 0 -58 -6q-33 -2 -57 0q-121 14 -137 10q-25 -6 -64 -16q-16 0 -37 4q-29 6 -32 8q-43 -6 -131 -6q-20 10 -54 23q-14 0 -45 6l-35 45q-8 20 -8 41q0 45 32 80t75 35q12 -6 28 -11q12 14 35 33q25 6 80 19 q-2 51 0 57h12q4 2 17 22q-4 16 -6 58q2 18 12 41l10 6q6 23 -1 99.5t-15 78.5v16q8 8 16 17q2 25 6 69q-2 -10 -6 13q6 10 19 35q-8 0 -19 67q2 -10 6 19l-10 16q-2 2 -12 18q12 39 22 109q-6 41 -16 108q2 25 0 76l-12 23q2 -10 6 41q2 23 -2 61.5t-4 59.5q-35 16 -52 16 l-20 -4q-16 -4 -27 -2l-10 12q-63 18 -77.5 35.5t-8.5 85.5q35 0 50.5 21.5t23.5 23.5q43 12 155 0q29 -2 105 -43q66 -35 102 -31q55 6 80 29q4 18 25 45q16 2 51 12q10 13 39 29zM866 985q-16 -12 -57 -41q-12 -2 -28.5 7.5t-18.5 11.5q-8 -2 -29 0q-2 -8 -10 -19 q-8 2 -18 0q-4 -14 -17 -41q-10 -2 -22 -10q-2 -10 -7 -29q-12 -16 -28 -41q0 -10 -6 -28q-23 -10 -52 -41v-39l-12 -6q2 -8 0 -23l-10 -6v-23q-2 -2 -15.5 -19t-9.5 -38q12 -8 25 -18q-2 -14 0 -39q0 -2 21.5 -34t21.5 -46q0 -10 -10 -12q16 -16 34 -48q2 -14 -10 -26 l-12 -12q0 -10 -6 -35q2 -6 6 -13q16 0 47 -16q0 -10 10 -25q12 0 35 -4q4 -8 12 -18q6 0 23 -6q2 -6 16 -17q33 -10 76 7l10 10h86q10 23 35 53q14 0 47 10v6q14 8 30.5 37t33.5 39v10h4v48l12 10q-4 12 -6 47q6 20 18 63q-27 20 -41 39q2 4 17 13q0 8 -3 22t-1 19 q0 4 10 28.5t6 38.5l-16 6q-4 12 -13 29h-6q2 25 0 57q-8 8 -16 23v24q-10 2 -23 11q-2 12 -12 34h-12q0 8 -6 23h-17l-30 31q-25 22 -56 16z" />
<glyph unicode="q" horiz-adv-x="1415" d="M547 1208q23 2 55 -16q39 -25 47 -27q10 2 31 0q4 -8 12 -18q12 0 37 -4q12 -12 35 -25q14 -2 23.5 10.5t13.5 14.5q18 -2 55 4q8 12 23 24q37 16 79 -6q14 -6 33 -35.5t21 -48.5q-2 -29 0 -84q12 -14 24 -36q4 -20 0 -54q-6 -33 -6 -37q0 -2 19 -30q8 -41 0 -78 q-8 -6 -19 -12q-10 -29 0 -74q0 -2 19 -25q0 -10 -13 -37q-6 -12 -12 -22q12 6 12 -29v-45q10 -2 25 -4l12 -12q8 -39 -12 -56l-6 -6q2 -14 5 -23t6 -16.5t7 -13.5q6 -31 0 -55q-8 -4 -18 -13v-43q-6 -12 -19 -40q14 -4 49 -13q-2 -20 0 -18q8 -4 15.5 2t15.5 4q-4 -6 4 -12 l-4 -19q-16 0 -31 2q-4 0 -24 17q-8 -6 -6 -33t12 -29v-10q0 -12 -8 -17.5t-10 -7.5h-7q0 -4 13 -61h6q-10 -27 -12 -84q4 -18 32.5 -35.5t34.5 -25.5q4 -23 23 -60q14 -4 43 -12v-6q29 2 84 0q43 -6 76.5 -39t33.5 -76q0 -25 -12 -49q-10 -2 -25 -12q-2 0 0 -17 q-14 -6 -43 -18v-6q-35 2 -102 -7q-16 -12 -49 -24q-35 -6 -103 2q-82 10 -96 10q-12 0 -29.5 -6t-19.5 -6q-45 -6 -117 0q-92 6 -118 6q-8 0 -32 -3t-28 -3q-25 10 -74 31v12q-10 10 -30 65v13q-2 0 2 9t4 3q4 29 12 84q2 6 12 12q14 6 39 0q27 -8 41 -6q31 12 72 25 q27 -6 90 6q14 6 37 18q6 6 25.5 46t17.5 51q0 2 -6 10t-6 14q0 20 18 47q8 6 16 13q-4 6 -6 24q-35 27 -61 27q-25 0 -70 -27l-18 -18q-25 -2 -68 -19q-4 -6 -18 -16v-6q-10 -4 -25 4l-16 8q-16 0 -43 -6t-39 -6q-14 0 -27 6q-16 14 -43 35q-25 0 -73 6q-14 4 -37 24.5 t-33 20.5t-24.5 5t-43.5 30q-4 2 -37.5 44t-35.5 46q2 10 0 31l-31 53q-12 14 -29 37q4 10 0 43q-14 14 -31 41q0 2 -4 32.5t-8 28.5q14 49 12 66l-12 12q-16 43 -12 86l12 16q-2 29 6 80l13 6q-6 31 -7 97h13q0 14 6 43q10 8 24 22q-2 10 0 25l11 6q0 45 18 127h6 q12 16 37 43q18 4 49 18q14 23 64 51q25 -2 74 2q18 12 55 25q31 -6 96 -6q13 8 31 18zM528 1044q-12 -14 -36 -34q-33 -8 -97 -37q-4 -2 -55 -59.5t-53 -61.5q-2 -20 -13 -68q-18 -23 -41 -53q-2 -4 5 -74q6 10 18 31q2 -2 12 6q6 -14 19 -37q8 4 24 7q10 -4 31 -13 q0 -29 0 -28q-37 -27 -53 -66q-8 -18 -27 -98q16 -4 49 -19v-18q8 0 19 -6q-6 -10 -6 -35q10 -8 24 -19q-2 -8 0 -18q8 -12 23 -31q2 -14 12 -37q12 0 31 -6q12 -6 13 -19t8 -14t28 -8h12q-2 -8 0 -24q6 -8 17 -25q14 -2 36 0q6 8 13 19h18q27 6 72 37q6 4 20 24q8 14 27 14 q10 0 14 2q8 16 25 37q8 4 18 13q-2 6 0 18l17 6q4 16 -6 32l-11 15q2 10 4 31q57 37 62 43q0 16 6 47l31 25q4 10 4 75q0 68 -4 89q-16 16 -37 49q2 12 0 35q-12 8 -31 24q-4 14 -18 37q-8 0 -23 6v19q-16 10 -37 28q-4 18 -18 49q-8 10 -25 15q-23 6 -31 10q-12 16 -40 41 q-17 8 -50 24zM238 651l6 -10q-2 10 -6 10z" />
<glyph unicode="r" horiz-adv-x="1456" d="M1028 1253q25 4 59 -8q20 -8 43 -16q35 4 103 -6q18 -18 53 -47q10 -2 31 -13q6 -14 24 -37q8 0 19 -6q0 -14 6 -41q16 -18 37 -55q2 -18 -9.5 -38.5t-9.5 -39.5q8 -18 19 -43q4 -59 -19 -102q-12 -6 -24 -19q2 -8 0 -18q-16 -20 -46 -23.5t-63 -7.5q-12 -8 -30 -18h-97 q-14 49 -37 67q-8 0 -18 6q0 8 -6 25q-6 -2 -19 -6v-12q-14 -6 -40 4q-18 6 -37 14q-6 23 0 18q6 10 12 23q25 -2 18 -6q14 -8 35 -17q16 -2 17 9q0 8 -14.5 25.5t-18.5 19.5v6l-12 -12q-37 -12 -121 12q-12 8 -31 18q-4 -4 -18 -6q-6 -12 -19 -43l-12 -6q2 -12 -6 -41 q-8 -2 -23 -6q-2 -8 -6 -19q-10 2 -25 0q-2 -10 -6 -24q-16 -6 -39 -37q-8 -23 -6 -61q6 -47 2 -72q0 -2 -6 -20.5t-6 -26.5q0 -2 8 -19.5t4 -29.5q-8 -8 -18 -25q20 -29 33 -29q10 0 34 29q23 -6 25 -6q4 -53 6 -47q-12 -20 -24 -43q16 -20 34 -41q2 -10 7 -31q47 20 77 21 q23 0 43 -9q14 -6 25 -26q18 -33 18 -35q33 -29 64 -59q43 -41 33 -86q-10 -8 -23 -25q-4 -10 -18 -29h-19q-20 -12 -61 -24q-23 2 -66 0v-13q-23 -8 -48 -17t-48 -7q-18 8 -43 18q-78 16 -127 6l-12 -12q6 2 -49 6q10 0 -60 -6q-51 4 -145 6q-2 0 -23.5 -6t-25.5 -6 q-12 2 -27.5 15.5t-19.5 15.5q-20 4 -62 12l-6 12q-41 -6 -55 0q-8 6 -35 35q-8 2 -19 6q0 12 -6 37q18 27 62 74q12 4 41 16q6 10 12 19q20 6 48 -5.5t50 -7.5v7q18 14 41 30q39 0 109 13l6 12q10 2 24 12q10 18 11 37q0 12 -6.5 43t-4.5 53q0 2 9 35q6 27 4 43 q0 2 -7.5 18.5t-5.5 30.5h7q8 29 36 72q-4 2 -6 18q-2 6 6 13q-6 16 0 18q-14 23 -30 59q2 8 0 19q-8 6 -19 12q-2 12 8.5 23.5t10.5 13.5q-2 14 0 41q6 16 18 49l12 6q-4 35 -6 25v12q-10 2 -30 12q6 41 6 35q0 16 -25 25q-14 6 -28 6q-16 0 -43 -8t-37 -10q-49 -6 -97 12 l-6 12q-29 -8 -90 0q-20 8 -31 49q-6 18 -6 37q0 27 37 107q125 -4 143 0q12 12 31 24q16 4 33 -6l16 -12q25 -2 66 4t61 2q29 -8 84 -23v-12q12 0 37 -6q8 -12 31 -25q29 2 84 0q2 0 31 -8q23 -6 34 -4q25 16 68 43q6 -2 18 0q14 10 35 23q23 -2 68 0l6 12q18 8 49 18z M743 510q6 -2 7 -10q-4 -4 -7 -8q-6 12 0 18z" />
<glyph unicode="s" horiz-adv-x="1177" d="M371 1192q-12 0 41 -6q70 8 202 0q8 -8 23 -17q27 2 76 0q14 -18 51 -41q2 0 18 13q8 0 13.5 -6.5t9.5 -12.5q8 -2 22 0q2 6 7 19q18 -4 40 -25q-2 -8 0 -16h11v16q16 10 35 25q33 8 47 0v-13q12 -16 28 -47q-2 -14 0 -39l13 -6q-6 -10 -7 -47q8 -12 17 -28 q-4 -14 -4 -52q4 -10 10 -24h12q4 -16 -5 -35t-7 -29l35 -45q-16 -12 -41 -35q0 -12 -4 -34q-12 -8 -25 -23q2 -10 0 -29q4 -4 4 -12t12.5 -9t12.5 -3q8 -10 24 -23q29 2 39 6q14 14 0 11q6 10 13 6v-17q2 0 6 -24q-23 4 -58 6q-2 -8 -12 -23v-6q14 -8 47 -28 q-14 -53 -12 -64q6 -2 16 -6q2 -10 6 -29h7q-4 -8 -7 -34l41 -41q-12 -35 -13 -37t-28 -21q12 -57 13 -57l-10 -10q-9 -9 -9 -13v-6q-10 -2 -22 -6q0 -12 -6 -41q-20 -12 -45 -39v-12h-13q0 -6 -6 -19q-14 -4 -41 -16q-14 -23 -51 -51q-29 -2 -86 -12q-23 -16 -53 -35h-74 l-6 16q-8 2 -111 6q-45 -2 -121 6q-8 2 -47 48q-37 -2 -98 10q-4 16 -16 47h-29q-14 -16 -47 -47q-8 -2 -23 -10q0 -8 -18 -25q-20 -8 -33 -4q-14 4 -35 57q-2 6 -12 29q-8 6 -16 16q-6 14 2 69.5t14 63.5l12 13l-12 28q-39 96 -39 162q0 18 4 29q20 57 84 57q14 0 27 -4 q4 -4 22 -35h35q29 -16 12 -12v-6q-14 0 0 -6q2 -16 5 -23l-5 -16q20 -14 46 -31q8 4 28 6v19l12 6q4 20 -15 50l-19 30q2 12 0 34q-8 4 -19 13q2 10 -4 35q-10 6 -24 16q-20 -16 -58 -23q2 8 0 23q-12 10 -28 29q0 12 -7 34q-8 10 -16 23q4 29 -6 82q-14 2 -35 16 q-4 8 -6 76q-4 66 0 76q18 14 41 35l-6 22q16 14 49 31q8 0 27 4v16q2 6 10 13q20 2 63 6q6 25 19 57q4 6 39 20.5t47 14.5zM371 1008q-20 -4 -43 -37q-25 -39 -37 -45h-6v-11q-10 -6 -35 -18q4 -29 6 -23q-4 -49 0 -81q2 2 29 6v12q10 2 59 -3t55 -9q6 -12 19 -29 q6 -4 54 -27.5t54 -23.5q39 -6 129 10q6 4 15.5 9t17.5 3l19 -12q39 -8 63 6q4 8 12 19h45q4 14 13 51q-18 10 -54 35q-8 14 -28 34h-4q-6 16 0 64q-18 2 -47 6l-7 10q-10 -4 -41 -6l-22 13q-25 -6 -80 -7q-14 16 -41 35q-14 6 -72.5 13.5t-72.5 5.5zM694 516 q-4 -10 -10 -22q6 -8 4 -19q-14 -12 -22 -47q-14 -2 -41 0q-6 10 -17 25q-6 -2 -16 0q-2 6 -6 16q-23 20 -88 29q-20 -31 -29 -64q-16 0 -57 -6q-4 8 -13 18q-6 -2 -16 0q2 -8 -6 -18q-4 -31 6 -29l6 -39q14 -6 29 -12l6 -12h-25q6 -12 19 -45h35q43 -14 69 -35q4 -8 10 -18 q14 -4 40 3t38 7q10 0 21 -4q4 -10 18 -29q10 -4 29 -12q16 39 43 65.5t55 50.5v17q-12 10 -22 24q-4 14 4 52l9 9t3 13q-8 0 -20 10q2 10 -2 25q-8 0 -19 6q2 12 -6 29q-13 6 -29 12zM557 395h29l6 -24q-8 -4 -19 -11h-28l-13 17q6 4 19 12z" />
<glyph unicode="t" horiz-adv-x="1286" d="M522 1614q39 4 60 -23q8 -10 26 -53q-2 -8 6 -22l52 -13q-2 -10 -11 -28q-8 0 -18 -7q4 -2 -6 -16q20 -14 28 -18q-4 -39 0 -52l19 -6q18 -14 10 -86q-23 4 -74 17q0 -25 0 -23q61 -6 74 -29q0 -6 6 -18q16 -4 47 -16q4 -8 11 -19q14 8 53 12l16 -16h64q2 12 6 39 q10 2 29 0q2 -6 6 -16l35 -23q27 2 75 0q41 -8 49 -29q-2 -4 2 -18q18 -12 41 -35v-12q2 -2 12.5 -2t12.5 -29q-2 -18 -2 -37h-29q-10 -12 -28 -30q-39 -25 -93 -29q-31 -2 -81 12q-14 8 -35 17q-14 2 -29.5 -9.5t-21.5 -13.5q-18 2 -58 0q-27 -8 -69 -22q0 -82 -13 -140 l-10 -16v-19q4 6 6 -2q0 -4 -2 -8q-12 -90 -2 -97t2 -36q-8 -12 -16 -29q0 -10 6 -17l6 -7q-6 -12 -6 -41q6 0 16 -4q2 -14 6 -47h7q-4 -2 -7 -13q8 -10 19 -22q-6 -14 -10 -14q-2 0 -2 4v-13h6q4 8 10 17q4 -4 18 -4q6 6 17 16q4 -6 9 -13t15 -22v12q16 4 52 11q2 12 6 24 q10 -4 34 0q-2 6 0 17h7q37 31 39 41q-2 16 -7 45q8 20 19 53q8 -2 67 0q45 0 66.5 -13.5t38.5 -58.5q20 -55 29.5 -67.5t58.5 -34.5v-6q6 2 16 0q18 -10 19 -21q0 -6 -41 -30q18 -25 28 -41v-23q-10 -4 -25 -13.5t-15 -15.5t34 -24v-10q-20 -18 -63 -58q10 -8 24 -24 q2 -12 -6 -41q-6 -20 -12 -39q-14 -4 -74 -6l-41 -13q-6 4 -28 6q-25 -4 -45 -24q-31 -29 -37 -33q-12 -8 -35 -8q-35 -2 -45 -4q-18 -10 -53 -23q-29 -4 -70 8q-29 10 -57 21q-39 6 -109 35q-10 14 -31 35h-16q-2 10 -6 22q-14 10 -35 29q-6 14 -6 94v10q0 2 -29 62 q-18 39 -18 63q0 29 18 55q-37 82 -37 115q0 12 5.5 20.5t15.5 14.5q6 10 0 29v12l10 16q-6 25 -10 82q12 18 28 45q2 14 3 29q0 20 -13 72q-12 45 -8 73q-10 2 -29 13q2 6 0 16q0 2 -34 47q-12 2 -35 0l-4 -18q-6 0 -25 -6q-27 -4 -65 2q-47 6 -68 4q-104 -6 -109 -6 q-16 12 -41 30q-2 23 7 92q6 35 41.5 41.5t72.5 10.5q16 10 41 22q20 6 51 2q31 -6 54 -2q12 8 28 19h76q-2 6 0 16q14 14 35 41q-10 16 -12 51q14 14 28 35q-2 10 -12 31q4 12 6 51l-10 6v64l35 28q6 20 22 58h23q6 6 18 12zM786 549h41q14 -41 7 -74l-23 6h-25h-28 q4 23 12 58q8 4 16 10zM776 422v-23q8 0 6 13q-2 14 -6 10zM1262 371q6 0 6 -2q-2 -4 -6 -4q-6 0 -7 4q1 2 7 2zM1239 358q4 0 6 -2q-2 -2 -6 -2q-6 0 -6 2t6 2z" />
<glyph unicode="u" horiz-adv-x="1531" d="M121 1210q20 2 50 -8t38 -10q2 0 12 6l10 6q12 2 28.5 -5t19.5 -7q2 0 15 6l13 6q23 4 65 -6t52 -16q23 -14 31 -41q-2 -12 0 -31q6 -4 16 -10q23 -35 25 -53q0 -4 -6.5 -7.5t-6.5 -5.5q4 -23 0 -69q-8 -8 -18 -17q2 -35 0 -100q-4 -16 -10 -41q10 -8 10 -10l-10 -6 q0 -25 -19 -60q-6 -4 6 -16q6 -20 20.5 -23.5t33.5 -7.5q-2 -18 -13 -57q-10 -10 -22 -35q-4 -27 4 -53q12 -6 24 -17q-6 -33 -6 -35q4 -12 13 -30q-4 -2 -31 -17q-8 -20 -4 -53q8 -10 16 -22q-6 -23 0 -70q6 -16 33 -23.5t31 -11.5q6 -16 18 -37h41q14 -6 35 6q8 16 22 35 q2 2 54 19q-6 10 -6 34q4 0 12 13q37 6 104 22q4 43 0 76q10 0 29.5 3t30.5 3q18 74 63 98v13q10 0 23 6v16q10 2 24 6q0 10 6 25h11v29q-2 0 -7 -13q-37 14 -34 35q6 8 12 19h29q-6 20 -11 82q4 2 11 6v45q-2 0 -7 -10q-18 -2 -69 -7v7q-2 12 -6 28q4 0 7 2t5 4 q12 -8 29 -18q35 -2 34 31q0 6 -4 36q-4 25 0 39q4 4 11 17q-20 2 -76 12q-14 12 -41 29q-63 20 -133 0q-27 -8 -35 -6q-6 6 -18 12q23 63 0 180q4 8 12 19q16 10 45 10q14 0 46 -4t48 -4t29 4q20 10 53 22q53 8 88 -6q6 -8 16 -16q27 2 76 -6q16 -8 37 -43q14 -25 29 -52 q6 -8 22 -28q0 -20 -6 -13q2 -10 -6 -6q0 -2 -5 -15t-5 -20q0 -2 16 -34q-4 -20 -6 -58l6 -12l12 -18q-4 -43 7 -93q-2 -16 -7 -41q-16 -74 -12 -88q8 -8 19 -22q-6 -31 -13 -82q4 -51 25 -88q6 -4 16 -10v-19q-14 -10 -28 -28q-6 -31 12 -35l-19 -41q10 -16 58 -60 q-4 -23 -4 -22q39 -4 100 -20.5t72.5 -30t20.5 -44t22 -40.5q2 -2 -13 -17q0 -16 -10 -41q-14 -12 -53 -18q-29 -6 -59 -10q-72 -18 -203 -19q-49 0 -66 6q-8 14 -28 35q-25 4 -76 23q-12 20 -47 41q-12 2 -45 -23l-41 -35v-12q-25 2 -72 -6q-12 -12 -35 -29q-12 6 -35 12 q-33 -14 -86 -30q-31 -2 -55.5 9t-44.5 21q-16 0 -47 11q-2 10 -10 24q-12 2 -35 13q-10 16 -41 38q-18 -2 -53 0q-23 8 -27 52q-4 37 -8 71l-19 19q-29 66 -28 106q0 20 6 39l12 6q8 18 17 54q-6 92 -13 92v12q0 10 9.5 21.5t9.5 13.5q-4 14 -6 53q16 27 34 64 q4 18 -11 38.5t-17 24.5q2 16 0 47q-10 12 -23 35q8 41 0 111h-12q-12 10 -35 24q-37 -6 -100 -6q-10 2 -35 35q-4 2 -17 12q12 41 11 51q-6 10 -13 19q-12 16 -10 35q2 25 23.5 49t46.5 26z" />
<glyph unicode="v" horiz-adv-x="1507" d="M1139 1198q18 -6 41 -12q4 0 15 7t19 5q2 0 6.5 -6t12.5 -6l10 12q14 4 73.5 -4t72.5 -12q27 -12 36 -37q-4 -10 0 -35q4 -8 17 -14q23 -6 24 -9q-4 -35 0 -69q-53 -14 -94 -29q-8 -8 -22 -18q-20 4 -66 6q-31 -2 -104 -47q2 -10 6 -35q2 -12 1 -18.5t-1 -16.5 q-8 -2 -25 -12q-2 -10 -10 -23h-18q-14 -35 12 -145l-6 -6q-4 -2 -13 -6v-23q-14 0 -41 -6l-28 -47q2 -8 6 -19q16 -2 35 -6q6 -23 6 -71q2 -57 -6 -74l-41 -47h-13q2 -8 0 -35q-10 -14 -28 -41q16 -33 0 -98q-68 -4 -88 -13q0 -4 -10 -10q-12 -25 -25 -65q0 -20 25 -52 q-6 -6 -13 -24q-61 8 -98 -17q-14 -12 -30.5 -23t-45.5 -7q-14 8 -31 18q-12 0 -34 6l-11 13q-18 16 -41 45q-2 18 -6 53l-18 18q2 12 0 35q-16 14 -35 41q-12 45 12 92q0 10 6 6q-4 2 -12 13v22q-12 23 -29 64v24q-23 18 -59 58q-4 8 -22 59h-7q4 27 0 76q-23 23 -53 57 q0 16 -4 47q-18 37 -41 111q-4 16 0 35q0 8 -8 23.5t-63.5 41t-79.5 29.5q-29 -4 -82 0q-18 6 -29 24q-16 31 -18 33q-8 4 -25 13q20 90 59 110h23q16 8 41 19q31 4 164 -7q35 4 88 7q4 -6 16 -19q12 0 38 9.5t34 9.5q35 2 102.5 -15.5t91 -34t33.5 -45.5q14 -6 4 -6 q-4 0 -8 -16.5t-8 -18.5q-12 2 -35 0q-6 -8 -18 -16q-10 0 -29 -6q-12 -25 -29 -53q-10 6 -11 -5l-1 -12q12 -2 35 -6q0 -25 0 -24q-45 6 -88 -17q4 -16 6 -47q10 -2 31 -12q-6 -37 -7 -35v-35q33 0 76 -12l10 -45q12 -18 42 -20.5t38.5 -12.5t20.5 -33q20 4 57 13 q6 10 19 22q2 2 22 6q2 10 0 31q-12 4 -29 16q2 10 0 29q68 -4 99 12l6 23q-2 0 -6 12q-2 -2 -4 12q12 6 41 23l-7 24q-33 -8 -30 -8q-2 0 -10 37q10 0 34 6q-10 27 -24 58q-41 8 -105 28q-2 10 -12 31q-12 14 -29 41q2 10 6 16q2 66 -12 95q16 -2 41 0q2 0 8 5t11 5 q2 0 21.5 -8.5t25.5 -8.5l10 13q20 4 64 -1t65 1l12 10q16 2 38 -6t32 -8q8 0 15.5 6t19.5 14zM760 993q10 0 10 -12q-6 -4 -10 -10q-8 0 -10 12zM643 924q14 -14 0 -11q-4 7 0 11zM877 918q31 0 30 -13q-2 -4 -14 -4q-4 0 -7 -4t-9 -2q-23 14 -7 12q5 11 7 11zM666 645 l-7 -18q10 -4 31 -13v-10q2 0 5 2t5 5t7 10v18q-10 0 -41 6zM754 645q-23 -6 -23 -37q0 -35 45 -16q4 6 11.5 14t19.5 15q-12 8 -24.5 17t-28.5 7zM1040 207q4 0 7 -4q-2 -2 -7 -2q-6 0 -6 2q0 4 6 4zM1016 131q12 -10 12 -16t-10 -13.5t-14 -11.5q-14 2 -15 10q0 6 27 31z " />
<glyph unicode="w" horiz-adv-x="1562" d="M1206 1184q47 6 99 -6l12 -13q4 0 6 5.5t4 7.5q47 14 88 6q14 -4 55 -46t46 -55q12 -61 -60 -75q-10 2 -22 0q-2 -12 -7 -29q-8 -4 -18 -12q-2 -27 -10 -82l-13 -6q0 -16 -6 -52q-10 -14 -22 -34q0 -18 -6 -54q-10 -12 -25 -28q2 -8 6 -19q12 -2 25 -6q-2 -10 0 -29 l-31 -41h-10q-12 -25 -12 -69q2 -57 0 -70q-8 -10 -19 -24q2 -14 0 -41q0 -2 -9 -16.5t-7 -24.5q12 -16 28 -39q-29 -37 -30 -39q-14 -20 -23 -49l-10 -13q-2 -8 10 -57q12 -2 31 -6v-12q-8 2 -17.5 7t-13.5 5v-18q-8 2 -22 0v-17q-20 -12 -41 -24q0 -6 -6 -23 q-12 -10 -35 -29q-49 -55 -84 -55q-12 0 -27 2q-23 4 -56.5 29.5t-38.5 44l-15 55.5q-8 4 -29 41l-12 4q-4 18 3 49t3 52q-12 14 -29 47q2 20 0 57q-6 12 -82 35q0 2 -12 35q18 6 12 6q10 4 14.5 5t26.5 7q-2 18 -6 41q-14 -18 -31 -35q-14 2 -16 6q-2 -2 -29 -18v-29 q-6 -2 -12 -6v-18h-12q2 -10 0 -29q16 -8 34 -23v-18q-6 -2 -16 -6q0 -6 -6 -17h-12q-2 -10 -11 -24q2 -2 11 -16h18v-13q2 0 6 -4t0 -8q-12 -8 6 -64q-57 -35 -71 -63q0 -18 -15 -45q-6 2 -20 -2v-6q0 -6 -8.5 -10.5t-8.5 -6.5q0 -16 -12 -41q-18 -14 -72 -18q-57 -6 -79 6 q-14 6 -24.5 37t-16.5 39h-13q-23 8 -34 47q-18 55 6 117l12 6q-2 8 0 29q-23 12 -53 40q-2 12 -13 41l-10 7v16q-12 10 -24 25q-6 23 -4 66.5t-3 60.5q0 2 -6 18t-4 29q0 2 12.5 24.5t10.5 34.5q-6 0 -17 4v19q-8 4 -18 12q2 16 0 45q-8 10 -18 24v13q6 31 0 45l-35 35 q0 16 -11 47q-16 12 -34 41q6 16 0 41q-18 2 -47 12q-14 10 -35 76q-6 23 -19 75q23 12 66 29q31 6 72 -2q31 -4 61 -10q16 4 41 6l18 -10q37 6 105 0q10 -12 28 -31q10 0 23 -4v-18q8 -4 18 -13q-10 -70 -12 -57q12 -23 12 -25q-16 -14 -34 -34q-4 -6 -12.5 -48.5 t-6.5 -56.5l12 -35q8 -2 19 -6q-41 0 -41 -14t45 -43q-14 -29 -14 -51q0 -18 20 -62h60q-6 4 6 12q2 8 -5 21l-8 14q-2 10 7 66q6 0 16 4q2 12 6 31l12 4v24q8 4 17 13q2 10 12 34q16 12 41 35q-14 14 -35 41q0 23 -12 64q-10 2 -27.5 13t-23.5 97q23 18 69 41q12 2 32 -5 t22 -7q6 0 57 6q4 2 41 0q31 0 84 8t80 8q23 0 47 -4q8 -2 41 -22q27 -16 51 -13q14 12 41 29q18 -2 53 0q14 11 47 25zM1036 1083q6 -8 23 -16q4 -2 6 16h-29zM1036 973q-23 -4 -47 -35q-12 -16 -22 -35q27 -18 75 -65l-6 -11h-47v-24q10 -10 23 -29q-6 -27 0 -57h18 q2 -4 12 -25q0 8 7 19l4 6q16 4 16 10l-6 9t-4 22q20 18 47 51q25 53 18 82q-10 4 -24 12q0 -6 -6 70h-58zM1012 651v-10q-2 -4 -4 -6l16 -12q10 0 26.5 4t16.5 8q0 6 -55 16zM803 569l6 -16q-4 16 -6 16zM803 535l12 -7q-6 7 -12 7z" />
<glyph unicode="x" horiz-adv-x="1429" d="M338 1206q57 0 88 -6l16 -12q39 -4 54 0q8 10 18 18q16 2 168 -63v-31q8 4 31 6q2 8 10 19q8 -2 18 0q0 6 7 16q29 0 86 6q10 10 30 25q31 6 86 0q68 -8 82 -6q12 0 60 12q41 8 69 4l13 -10q25 0 75 -6q4 -8 11 -19q68 -41 67 -80q0 -12 -2 -24q-8 -14 -25 -41h-10 q-10 -20 -35 -47q-16 -4 -53 1t-53 -1v-13q-10 -14 -41 -41q-16 0 -45 -10l-6 -6q-4 -2 -25.5 -45t-21.5 -49q4 -8 0 -41q-6 -2 -13 -4q-6 -18 -28 -47h-19q-8 -4 -41 -47v-23q2 -4 47 -25q4 -43 -6 -75l13 -13q4 0 28 -4q8 -29 13.5 -37t22.5 -12t24 -10q20 -18 16 -94 q-4 4 -10 -4q14 2 41 0q14 -6 20 -50q4 -31 8 -63q86 0 99 -4q8 -10 24 -25q8 2 23 0q10 -10 28 -22q29 0 76 -19v-10q10 -10 19 -24q4 -41 -41 -70q-25 -4 -70 -23q-8 -14 -24 -37q-31 -31 -82 -34q-16 0 -37 8t-27 10h-63h-88q-8 -8 -17 -18q-33 -8 -65 0q-10 12 -29 24 q-6 -4 -29 -6q-18 10 -47 23q-29 2 -88 6l-29 12q-25 0 -47 -12q-2 -8 -5 -13.5t-29 -21.5q-27 2 -82 0q-10 -4 -23 -8q-20 -6 -35 -4q-2 0 -17 6t-18 6q-18 -8 -53 -16q-53 -4 -94 4l-16 12q-18 -2 -54 0q-14 8 -34 18q-12 -6 -48 0q-18 8 -47 45q0 14 -16 37h-6v39 q6 8 18 19q6 -2 17 0v12q14 -2 34 0q4 12 13 29q8 0 28 6l7 12q29 2 94 16q6 8 16 19q10 -2 29 0v10q10 -2 24 0q10 6 14.5 23.5t11.5 22.5t21 13q0 12 11 35q12 2 30 13q0 8 5 22q12 2 30 12q16 18 58 64q8 12 10 43t8 45l29 22q4 12 8 56q2 45 -2 55q-25 14 -53 35 q-4 23 -17 59q-29 10 -65 29q-4 16 -23 41h-6q2 12 0 29q-18 12 -41 30q-4 8 -18 35q-14 8 -35 2q-27 -4 -41 -2q-10 8 -29 17q-33 8 -57 0l-12 -11q-12 6 -35 17q-53 23 -64 75q-4 18 -4 33q0 29 43 68q10 12 25 28q16 6 39 5q31 -6 43 -5q25 12 63 29q29 6 76 6zM700 1036 v-10q-4 -10 -6 -25l13 -16q-4 0 6 -35q-12 -4 -31 -12v-25q39 10 59 13h41q8 8 17 24q2 12 -13.5 35t-27.5 29h-23q-4 0 -18 22h-17zM741 332q-29 -18 -28 -29q0 -4 10 -31h47l12 -34q6 4 29 12q-14 8 -41 22q-2 18 6 41q-6 4 -18 19h-17zM635 266q-16 -2 -17 -12 q0 -6 17 -29q27 8 31 6q8 -10 22 -22h12q0 -18 7 -53q4 -2 16 -6q0 -14 2 -31t23 -10q8 4 8 14q2 18 2 20h-17q-2 12 -6 25q-8 -2 -18 0q4 8 6 29q-4 2 -10 6v22h-13q8 0 9 11q2 18 4 18q-62 16 -78 12z" />
<glyph unicode="y" horiz-adv-x="1366" d="M1122 1194l18 -8q19 -8 21 -10q20 -2 41 6l6 12q18 0 48 -21.5t38 -35.5q0 -10 6 -29q20 -47 17 -64l-12 -6q-25 -39 -102 -70.5t-99 -66.5q0 -14 -10 -51q-10 -6 -23 -19v-32q-8 -14 -18 -35q0 -20 -11 -64q-16 -12 -34 -41q4 -10 6 -32q-27 -27 -53 -70q6 -8 12 -35 q-8 -14 -17 -35q2 -20 0 -63l-12 -16q2 -16 0 -46q-25 -12 -57 -34q-8 -12 -6 -29q2 -23 0 -29q-8 -6 -17 -12q-2 -10 10 -57q-8 2 -32 0q-2 -27 -13 -80q-16 -16 -34 -51q6 -20 6 -58q-8 -4 -17 -12v-35l-24 -51q-2 -2 -8 -2v0q-6 0 -9 -4q-18 -35 7 -115q-6 2 -19 0 q0 -6 -4 -16q-18 -4 -47 -23q2 -8 0 -22q-8 -25 -41 -47q-6 2 -16 0q-4 -6 -13 -17q-16 -4 -45 -18v-10q-10 -6 -18 -23.5t-17 -24.5q-6 2 -16 0q-4 -8 -12 -16q-20 -8 -53 -8q-41 0 -62 -4l-10 -10q-39 -10 -70 -7q-31 16 -86 41q-25 2 -69 17q-25 12 -60 59t-43 78 q-6 23 -4 45q4 35 4 47q-4 92 0 103q10 10 23 28q6 29 28 76q18 16 78 30.5t105 14.5q59 0 88 -51q0 -2 6 -12q-8 -10 -12 -29q12 -12 28 -33q2 -23 13 -70q-35 -29 -29 -51q6 -6 16 -18v-17q49 -12 70 7q4 8 10 16h12q0 8 7 18q8 0 22 4q-2 12 0 29q6 14 16 29q12 4 23 12 q4 12 -23 64q8 0 23 6q2 2 0 16q16 2 47 6q10 76 10 74q-16 14 -39 47q-6 39 -22 119q-14 20 -35 57q-2 18 -12 53q-12 10 -29 33q-2 29 -16 86q-6 4 -13 6q-20 33 -28 76q4 12 0 51q-12 14 -29 41q2 18 0 58q-2 10 -21.5 29.5t-23.5 27.5q-4 25 -12 61l-11 7v47l-12 10 q-2 6 -12 98q-10 2 -29 6q-4 -2 -27.5 -16t-33.5 -12q-20 12 -53 28q-14 -4 -46 0q-2 6 -12 23q-10 8 -22 22q-2 10 6 86q63 29 106 29q29 0 54 -12q12 -8 25 -17.5t32 -5.5q8 10 24 23q14 -4 46 -4q12 14 41 33q4 2 51 2q45 0 51 -2q12 -10 35 -29q6 6 28 18q27 -20 58 -63 q2 -10 0 -58l-51 -45q-14 0 -41 -6q-4 -8 -13 -18h-10q-2 -14 -6 -45l-12 -6q-20 -57 12 -125q14 -14 29 -35q-4 -6 -7 -19q14 -12 35 -38q2 -18 17 -52q10 -6 24 -18q2 -16 10 -51q10 -27 41 -80v-19q39 -20 56 -20q10 0 18 4v16q10 6 25 19q-2 14 4 45q2 4 41 35 q-4 25 0 69q12 6 28 23q33 66 0 143q23 16 45 35v29q12 27 13 28q0 2 -12.5 17.5t-16.5 15.5h-16q-2 25 -27 49q-8 0 -27 4q-2 8 -10 23q-14 6 -41 22q4 31 23 70q8 -2 18 0q0 6 6 16q6 -2 17 0q10 18 41 46q23 10 61 10q25 0 94 -6q57 -6 84 -4q4 2 19.5 10t21.5 8z" />
<glyph unicode="z" horiz-adv-x="1247" d="M451 1212q14 4 36.5 -4t24.5 -8q27 4 90 6q35 -8 92 -18q18 6 54 6q2 0 13 -6t17 -6q20 10 49 18q18 2 45 -4q16 -4 33 -8q12 4 43 6q111 -2 170 -72q2 -4 25 -43q-10 -12 -25 -37q2 -14 0 -41q-2 -8 -49 -43q0 -14 6 -36q6 -2 19 -7q-27 -20 -35 -24q-14 -6 -49 -12 q-6 -10 -13 -25q10 -27 7 -29l18 -12h-18q-4 -10 -13 -25q-10 0 -24 -6q0 -16 -13 -43h-18q-6 -4 -18 -18q-18 6 -54 6l-6 -12q-16 -4 -43 -13q-2 -14 0 -59q-12 -2 -24 -6v-25l-13 -6q-2 -12 -6 -31q-16 4 -55 -6q-2 -2 -23 -43q-10 2 -24 0v-12q-2 2 30 6q8 -37 9 -45 q0 -23 -39 -45v-12q-10 -2 -25 -12q-2 -12 -12 -31q-14 -2 -37 -19q2 -12 0 -34l-18 -7l6 -12q-37 2 -43 0q-4 -2 -11 -6q-6 -10 -18 -25h-6v-43q4 -2 18 -24q82 10 115 0q14 -8 31 -19q4 8 18 19q29 10 72 4q49 -6 74 -4q31 10 90 24q4 29 18 68l12 6q-2 14 0 43l6 18 q7 17 7 29q0 6 -7.5 19.5t-5.5 23.5q10 14 22.5 36t33.5 79q70 -4 110 -35q63 -49 78 -55q-4 -10 -12 -37l-12 -12q2 -20 6 -13q4 -51 -13 -77l-12 -7q-6 -29 0 -92l12 -12q8 -33 0 -84q-6 -47 -18 -68q-8 -4 -16.5 -14t-15.5 -22.5t-21 -14.5q-20 2 -62 -2q-16 -12 -43 -24 q-41 2 -127 -7q-37 -10 -92 -6q-86 6 -96 6t-41 -7t-51 -5q-18 8 -43 19q-20 2 -103 6q-14 0 -39.5 -6.5t-31.5 -6.5q-16 -2 -43 5q-33 6 -37 8q-39 -4 -115 0q-10 8 -25 18q-27 8 -51 17q-12 6 -28 43q-8 12 -19 30q0 8 6 37q-4 14 0 47q12 8 37 25q53 43 86 80 q10 25 41 65l80 62h12q2 14 13 49q8 16 38 39q41 29 46 32q6 14 24 37q25 6 68 25q10 18 30 43q8 -2 23 0q2 8 6 25q18 4 43 22q2 18 12 55h13q2 10 6 25q16 10 37 24q0 10 6 25h6q-2 6 0 18q6 0 18 7q6 4 7.5 22.5t3.5 24.5q10 25 61 67q4 0 19 6v13h-7q0 31 0 30 q-10 6 -194 0l-6 -18q-23 -6 -45 6q-33 16 -33 17q-18 6 -66 2q-45 -6 -63.5 -14.5t-32.5 -42t-8 -66.5l12 -6q12 -18 6 -48q-10 -12 -24 -30q-8 -33 -25 -92h-12q-2 -10 -12 -25q-8 2 -25 0v-10q-12 -4 -43 -12q-6 -10 -16 -19q-29 -4 -36 10.5t-14 30.5q-10 10 -24 25 q-6 16 -6 51q2 41 0 53q-4 8 -8.5 21.5t-4.5 25.5q8 25 19 62q-2 20 0 61q6 29 31 66l12 6q-4 35 12 86q6 6 50 15t59 9q2 -2 24.5 -9t36.5 -3q8 10 25 23h35q12 18 43 36zM840 662q8 0 10 -7q2 -6 -2 -12t-8 -6q-8 0 -11 12q-3 13 11 13zM426 223q-6 -4 -25 -12v-31 q23 -4 37 -4q8 0 25 4q4 4 2 17q0 10 -8 2q-11 8 -31 24z" />
<glyph unicode="&#xa7;" horiz-adv-x="831" d="M422 1698q4 -6 10 -12q25 -16 57 -23q16 0 48 -4q4 -6 10 -14h8l20 -46q10 -12 46 -12q-6 -55 0 -57q6 -43 0 -57q-6 -6 -13 -17v-18l-8 -4q-2 -6 -6 -19q-6 0 -16 -4l-27 -27q-31 -12 -62 -8q-23 2 -53 54q-8 4 -18 16q-2 18 22 63h9q-2 18 -5 13q-47 47 -65 39 q-8 -8 -23 -21q-14 -6 -61 0q-4 -8 -14 -22q-8 -6 -17 -19q-4 -10 0 -53q2 0 8 -4q-4 -14 -4 -8q0 -18 4 -41q10 -10 23 -31q-2 -6 0 -16h4q6 -12 23 -31q4 0 12 -6q2 -8 8 -31q23 -14 57 -47q6 -18 23 -53q8 -6 22 -19q12 -23 45 -61q16 -6 48 -23q2 -8 10 -26 q14 -8 35 -23q8 -10 8 -25v-18q10 -25 72 -27q-2 -23 4 -61q8 -4 18 -10l16 -39q4 0 15 4q0 8 4 18q6 -2 16 0q2 4 6 13l4 -17q-18 -14 -20 -16t-6 -29q4 0 12 -4q0 -6 4 -14q10 2 23 0q0 -4 4 -17q6 0 14 -4q-2 -8 0 -22q8 -10 17 -23v-22h-21q-4 -14 -27 -66q4 -4 5 -12 q0 -16 -27 -60q6 -2 -1 -26.5t-13 -30.5q-20 -8 -43 -16q0 -12 -4 -37q-4 0 -15 -4q-4 -16 -8 -47q-8 -2 -23 -6q2 -8 0 -21q6 -6 15 -14q-4 -6 -6 -23l32 -47q6 -4 -10 -22q-4 -4 -12 -15q12 -18 16 -57q6 -49 11 -62q-8 -8 -27 -22q-14 0 -41 -8q-4 -14 -12 -35 q-8 -2 -19 -10q2 -4 0 -13q-6 -18 -53 -53q-12 -14 -43 -35q-23 -4 -68 -18q-10 -8 -24 -16q-14 -2 -39 9t-33 11q-18 -2 -45 -4q-45 20 -92 45q0 8 -8 27q-10 4 -27 12q-8 8 -41 49q0 4 4 70.5t7 74t36 28t47 22.5q6 0 13.5 -4.5t9.5 -4.5q12 2 39 0q2 -8 8 -18 q14 -10 72 -23q4 -14 8 -30q0 -6 -4 -23h-8q-2 -4 -11 -26h11q2 -8 8 -27l8 4v23q6 4 14 10q8 2 31 -6h23q10 4 30 53l8 4q0 8 -3 13t-5 10q-2 10 3 23t5 17l-22 48q0 8 -4 22q-8 4 -23 14v9q-8 2 -20 8q-4 6 -7 17.5t-12 31.5q-12 2 -28 25q0 10 -2 28q-4 0 -15 4v9h-4 q-10 16 -35 45q-12 8 -34 26q-8 18 -27 58q-6 2 -14 8q-8 14 -27 45q-10 6 -27 22q-8 25 -30 70q-8 6 -23 18q2 4 0 13q-14 14 -39 41q0 4 -4 16l-8 4q-8 25 -8 70q2 47 12 63q4 2 12 4q-2 39 4 99q8 16 37 34q12 2 31 15q0 14 8 43q6 2 12 8q8 14 23 41q4 2 10 4 q18 51 0 111q-8 10 -18 26q-8 35 0 80l8 17q2 14 -7 29.5t-9 23.5v4q4 18 16 45q18 6 53 22q2 4 4 13h11q10 16 34 35h27q12 12 39 32q10 5 84 21zM223 1143q-6 -10 -22 -23q-16 -2 -47 -4q-2 -18 -11 -57l-8 -6v-17q-8 -20 -22 -61h-4q4 -8 8 -19q14 -23 14 -65 q4 -68 4 -72q12 0 39 -4v-18l-4 -13q27 0 72 -14q4 -12 16 -35q16 -6 41 -22q2 -10 12 -31q2 -2 58 -43v-33q18 0 57 -8q12 -4 37 -12q0 -31 0 -27q2 -20 4 -14q-20 0 16 -8q2 2 15 8q0 31 0 30q14 6 39 19q53 31 53 111q0 14 -4 26q-8 6 -19 17q0 8 -4 26q-6 4 -12 10v13 q-12 6 -27 22v27q-10 10 -26 31v14q-10 4 -23 16q-2 10 -8 27q-12 8 -31 27q-2 8 -10 26q-12 8 -35 31q-4 16 -22 45q-16 6 -43 27q-2 12 -15 34q-6 6 -40 13.5t-48 5.5z" />
<glyph unicode="&#xad;" d="M399 1038q18 4 21 -8v-24q8 -4 16 -9q12 -2 31.5 9.5t32.5 11.5l12 -8q12 -4 26.5 2t24.5 6q14 -6 37 -12q27 2 84 4q25 -6 31 -4q12 6 28 12q8 0 23 -6l14 -6q16 2 43 4q8 -10 21 -23q16 -4 43.5 5t44.5 5v-4q14 -6 43 -22l4 -8q14 2 41 -5q23 -37 51 -84l12 -8 q2 -8 -3 -16l-5 -8q2 -4 4 -19h4q0 -6 -4 -20q-2 -4 -36.5 -39t-38.5 -37q-25 -12 -71 -13t-89 -3q-2 0 -26.5 -5.5t-37.5 -3.5l-14 6q-14 7 -18 7q-6 -6 -17 -13q-2 0 -55 9q-16 -4 -55 -4q-6 0 -19.5 6t-21.5 6q-10 -2 -21 -6q-18 -4 -31 -2q-12 6 -28 12q-8 -2 -29 -4 q-16 6 -39 12q-6 0 -27.5 -8t-23.5 -8q-8 0 -31.5 8t-30.5 8q-14 2 -92 -4q-55 -4 -86 8q-2 6 -8 13q-41 33 -49 86q-20 115 8 133h21l4 8q33 23 71 47q31 -6 93 -8q6 2 15 6t19 2t31 -20.5t35 -18.5l10 10q12 6 12 11q0 2 -6 6t-6 8q0 10 4 16q-10 0 4 4z" />
<glyph unicode="&#xb4;" horiz-adv-x="487" />
<glyph unicode="&#xc4;" horiz-adv-x="1554" d="M1042 1956q41 4 60 0q72 -57 104 -82q2 -12 13 -41l10 -6v-41q12 -57 12 -53q-2 -12 -18 -21q-25 -10 -28 -15t-7 -16q-18 -29 -51 -28q-16 0 -54 10q-45 10 -129 29q-14 63 -75 106q6 23 18 57q8 14 36 15.5t40 7.5v12q10 6 22 19v35q18 4 47 12zM483 1950q76 4 105 -31 q4 -16 22 -41q23 4 66 0q10 -8 29 -23q-2 -33 -13 -75q-16 -4 -35 -13q-2 -8 -12 -28q-37 -63 -133 -64q-84 0 -176 64q-4 43 6 129q10 29 55 53.5t86 28.5zM793 1628q68 6 92 -12l41 -70q-2 -23 0 -63q10 -12 24 -31q0 -23 11 -70l12 -6q2 -12 -5 -28.5t-7 -28.5 q14 -23 30 -59q-2 -12 0 -35q14 -12 35 -45q4 -25 0 -60t0 -53q16 -23 41 -70q12 -49 10 -69q0 -2 -6 -19.5t-4 -21.5q8 -16 16 -35q-2 -14 0 -41q10 -16 29 -47q6 -18 18 -57q8 -10 17 -25q2 -14 -5 -30.5t-5 -33.5q14 -16 34 -47q-4 -20 0 -57q12 -2 29 -6q4 -10 12 -25 q-8 -10 -24 -28v-17q12 -10 24 -30q-2 -29 7 -76q20 -6 45 -17q2 -14 12 -41q20 -14 47 -41v-12q12 0 47 -6q16 -4 51 -29q25 -16 31 -30q8 -23 16 -45l19 -19q-6 -2 -6 -16q-12 -2 -35 -13q-2 0 0 -16q-33 -18 -94 -41q-25 -4 -70 1t-70 5q-2 0 -57 -8q-43 -6 -59 -4 q-18 12 -54 29q-25 -6 -81 -6q-6 2 -43 36.5t-39 38.5q-2 12 18 60q20 41 30.5 50t26.5 25q6 23 19 52q8 2 18 6q-8 31 -12 31q4 14 12 69q-8 8 -24 17h-17q-4 8 -12 18q-23 8 -61 8q-25 2 -74 0q-53 -2 -70 -2q-10 4 -28 6q-6 -12 -19 -24h-51q-2 -4 -6 -13q-6 2 -19 0v-10 q-8 -4 -16 -12q-23 -35 -6 -70q6 -14 47 -41q4 -10 16 -22q6 0 19 -6q-2 -8 0 -19q14 -18 35 -53q-4 -4 -7 -10h-18q0 -16 -4 -47q-14 -25 -35 -70q-27 0 -78 -6q-6 -8 -16 -19q-25 -4 -74 0t-72 0l-12 -10q-18 -6 -49 2q-18 4 -39 8q-45 -2 -133 0q-20 10 -53 25 q-14 0 -41 10v19q-20 86 -6 123q14 10 30 28v12q25 4 64 13q16 6 47 16q33 -4 98 6q4 2 17.5 22.5t25.5 69t20.5 65.5t26 29.5t33.5 24.5q0 6 6 17q8 0 17 6q6 14 -2 37q-4 14 -9 26q-6 66 11 107q8 6 18 16q-2 14 0 35h12q4 12 17 29l24 6q-12 16 -24 41q-8 51 18 123 q12 12 29 34q0 18 12 54q8 4 35 16q-6 12 -41 41q0 27 6 88h10q-4 4 -6 25q16 29 37 92q-4 37 4 117q8 4 19 12q23 25 47 63q-6 25 0 76q4 10 34.5 41t40.5 35q28 10 48 12zM786 1102q-14 -14 -28 -39q-4 -10 0 -37q-4 -6 -13.5 -14t-21.5 -6q-16 4 -18 4q-2 -14 0 -41 q4 -6 8 -14.5t4 -20.5q-12 -20 -25 -41h-12q-4 -29 -23 -88q-16 -16 -34 -41q-4 -16 11 -56t23 -42h19l4 -13q10 -4 53 -9t53 -3l11 25q14 2 41 0q12 -12 30 -25q4 0 13.5 6t15.5 6q-12 39 -12 41q8 4 18 13q33 43 23 92q-2 16 -21.5 30.5t-25.5 22.5q-8 18 -5 49q4 35 0 55 q-12 10 -24 25v16q-10 10 -23 29v66q-4 4 -12 10h-29zM752 180q29 -27 28 -39q0 -10 -22 -10q-47 0 -47 16q0 17 41 33z" />
<glyph unicode="&#xd6;" horiz-adv-x="1251" d="M336 1937q37 10 72 -4v-6q31 -14 67 -43q6 -10 17 -22h10q8 -23 22 -56h4v-28q12 0 23 -4v-50q33 -10 61 -28q2 -6 0 -17q-6 2 -16 0q-4 -12 -12 -26q-10 -4 -33 -13q-6 10 -16 23h-17q10 2 -10 6q-20 -4 -21.5 -16.5t-1.5 -28.5q55 14 72 12q12 -8 33 -16q6 -2 13 4t9 6 q10 2 37 -4t29 -6h65q8 -2 41 -10t37 -6q16 10 43 26q-25 2 -71 17q-6 10 -21 26q-10 4 -22 13q39 119 38 120q-6 2 -12 6q-20 33 -10 72q31 4 82 4q61 -2 84 0l10 13q25 6 49 -7q14 -6 17 -20q2 -25 7 -29l15 -12q2 -8 10 -27q10 -10 20.5 -21t8.5 -34q-8 -6 -16 -16 q2 -12 0 -33l-17 -6q-4 -45 0 -66q-43 -18 -100 -16q-4 -29 -33 -49q0 -8 -6 -17q29 -18 88 -51q2 -37 0 -37q23 -18 51 -55q0 -27 17 -78q8 -8 20 -22v-17q4 -8 29 -43h10q4 -8 12 -22q-2 -10 0 -27l37 -49q8 -4 -16 -23q2 -8 0 -22q14 -8 29 -23q2 -12 -4.5 -31.5 t-2.5 -33.5q8 -6 17 -17v-16q-18 -16 -17 -39q8 -10 17 -22q0 -4 -5 -17.5t-5 -15.5q8 -49 10 -137q-8 -10 -17 -23v-72l-10 -4q4 -35 0 -116l-12 -17q2 -12 0 -33q-8 -6 -21 -22q-2 -23 -6 -76q10 -8 43 -29l-8 -39q-20 -4 -41 -10q-37 2 -49 0q2 -25 0 -26q-8 -18 -43 -39 q0 -37 -14 -49q-25 -14 -48 -29q4 -29 7 -27q-6 -2 -13 -10q-18 0 -49 -6q-4 -16 -16 -39q-10 0 -33 -6q-6 -14 -23 -37q-6 0 -22 -6q-2 -6 -4 -10q-18 -6 -51 -2q-35 4 -49 2q-6 -16 -33 -37q-16 -4 -49 -2q-47 2 -76 16q-12 12 -35 27q-33 0 -92 12q-8 14 -29 37 q-18 4 -55 18q-6 10 -21 33q-16 6 -39 21v22l-49 49q-4 12 -16 33q-8 2 -16 6q-8 23 -29 66q-12 10 -27 32v52q-6 8 -12 26q4 18 6 49l-10 7q-8 18 -17 43q0 27 -6 77q-8 8 -16 17q-8 27 0 78q6 61 6 88q-8 18 -16 49q-2 18 4 36.5t6 28.5q-8 8 -16 23l6 16q-2 14 0 43 q14 23 0 23q-2 14 0 45l10 16q-2 20 0 60q8 8 16 22q-2 14 0 39q4 12 24.5 29.5t24 29t13.5 39.5q10 6 26 23q-2 18 7 55q25 18 53 43q2 8 12 29q27 18 76 59q10 23 35 66h10q4 10 10 22q-4 8 -10 17h-39l-98 28q0 8 -6 27q-12 12 -27 33q-2 14 5 27.5t5 27.5q-8 12 -16 27 v39q4 2 10 6q12 25 23 32l38 33h17q10 22 43 49zM596 1421l-12 -12q-14 2 -43 -4q-10 -12 -29 -29q-18 -4 -49 -10q-2 -29 -17 -66q-14 -12 -75 -16q4 -47 4 -45q-16 -10 -41 -31q-6 -8 -2 -12t0 -12q-16 -10 -33 -33q-4 -10 3 -27l7 -16q4 -27 -6 -33q-23 -8 -55 -16 q-2 -29 -17 -84q14 -2 29 -10v-17q-39 -12 -45 -22q2 -2 -4 -11q4 -16 16 -55q-6 -4 -6 -6q4 -8 25.5 -20.5t23.5 -22.5q8 -27 6 -55q-8 -12 -16 -29q0 -12 10 -53q8 -10 14.5 -24.5t18.5 -47.5q8 -2 16 -6v-16q10 -10 23 -29q-6 -4 0 -53q4 -49 15.5 -54.5t39.5 -17.5 q12 -23 45 -55q6 -2 17 -6q0 -10 4 -27q10 -8 22 -23q-2 -10 0 -22q10 2 27 0q6 -6 16 -17q25 -10 70 -14q51 -6 74 4q8 12 28 27q12 4 50 -2q35 -4 49 2q4 10 10 22q18 6 45 23q-4 4 -6 16q18 23 39 49q0 16 10 43h18q4 2 17.5 15.5t15.5 19.5q-8 14 -6 49q33 20 78 50 q2 12 0 32l-23 11q0 35 17 71q12 23 6 23t-12 6q4 10 6 27l-13 6q2 8 0 22q-6 10 -13 23.5t-3 29.5l29 23q6 14 6 29q0 18 -13.5 48t-15.5 40q0 6 6 49l-16 16q-12 -2 -33 0q-6 6 -16 17q4 18 8 34q18 4 35 9q2 10 0 28q-6 4 -17 11q-25 39 -26 55q2 16 0 45q-8 18 -43 25 q-49 8 -57.5 13t-13.5 24.5t-9 25.5q-41 18 -92 53q-2 12 -6 33q0 -4 -6 -10q-14 0 -43 -10q-6 -10 -17 -23q-10 2 -29 0l-16 16q0 6 4 25q2 12 -8 14z" />
<glyph unicode="&#xdc;" horiz-adv-x="1439" d="M1001 1946q27 -10 76 -39q4 -12 10 -25q33 0 99 -16v-6q8 -4 35 -29q4 6 6 -19q-6 -6 -17 -16h-18q-4 -8 0 -41q2 -12 14.5 -35.5t20.5 -27.5h12q-4 -18 0 -41q-18 4 -53 12q-12 4 -29 12q-4 -4 -45 -35q-2 -4 0 -18q-8 -6 -25 -16q2 -6 13 -13q23 -8 59 -2q41 6 55 2 q41 -10 105 -51q2 -6 6 -12q18 0 51 -6q10 -6 25 -17q0 -16 -6 -47q-4 -8 -17 -10q-20 -6 -24 -6q-8 -8 -23 -19q-35 -6 -67.5 -12t-49.5 -29l-10 -4v-34l-12 -13q4 -25 0 -86q-8 -8 -16 -18q2 -12 4 -41q-8 -12 -17 -29q10 -31 17 -76q-8 -6 -17 -16q8 -27 6 -92l-18 -12 q8 -10 18 -23v-18q-2 0 -18 -17l18 -35h7v-16q-10 -6 -20.5 -13t-10.5 -28q12 -16 24 -35q4 -16 0 -47q-4 -33 -12 -35q2 -6 6 -16q8 -20 6 -29l-12 -12q-2 -35 -12 -104q12 -8 35 -23q-10 -25 -11 -41q0 -16 11 -41q-6 -10 -23 -29q-20 -4 -45 -22q-4 -8 -4 -23 q0 -27 9 -59.5t18 -34.5v-16q-4 -2 -13 -6q-16 -14 -6 -58h-4v-12q-25 -6 -65 -29q-2 -12 -17 -35q-20 -6 -57 -22l-25 -29q-23 -8 -74 -28q-18 -14 -59 -31q-4 0 -26.5 6t-24.5 6q-12 2 -107 -4q-74 -4 -102 10q-12 23 -39 52h-24q-8 10 -23 24q-41 16 -80 35 q-45 23 -59 57q-2 35 -17 99q-20 12 -47 45v59q0 4 -6 29.5t-4 34.5q8 18 16 40q2 12 -5 31t-7 21q-2 20 6 45q12 33 13 37q4 27 0 51q-8 8 -19 16q2 16 0 41q-8 4 -22 12v11q0 2 18 12q-8 49 -6 57l10 6q25 39 25 76q-2 14 -17.5 44t-11.5 48q0 8 15.5 29t13.5 47l-13 35 q-14 35 -12 51q14 31 29 82q2 10 -7.5 26.5t-9.5 18.5q2 14 0 41l-12 12q4 33 -4 86q-4 8 -23.5 19.5t-29.5 9.5q-16 -8 -23 -6q-6 2 -30 22q-18 14 -46 13q-12 -4 -26 -8q-18 -4 -28.5 2t-10.5 16q0 14 14.5 34.5t24.5 22.5t33 9q14 14 41 34l57 19v4q2 0 2 -2t4 -2h16 q12 -18 35 -41q14 -4 28.5 1t24.5 9q18 0 58 6q6 8 16 19q10 -2 29 0q8 8 18 16q10 4 45 -6q14 -4 19 -4q10 -12 35 -25q8 0 34 6q16 2 44 -4t32 -8q18 2 58 0q18 -10 51 -29q2 -8 0 -22q-16 -8 -35 -17q-12 -16 -39 -34q-20 -2 -59 -13q-6 -8 -17.5 -15t-63.5 -14t-63 -5 q-16 8 -24 6l-35 -25q0 -2 12 -16q0 -10 -6 -29q-10 -8 -22 -22q2 -16 0 -41l-13 -7q-2 -27 8 -47q8 -10 17 -22q2 -18 -7.5 -43t-4.5 -43q8 -12 16 -29q8 -45 0 -70q-12 -8 -29 -24q0 -2 13 -10q-2 -23 0 -64q-6 0 -23 -18q-8 -23 -12 -23v-18q14 -8 35 -23q0 -14 -7 -45 q-8 -6 -16 -18v-17q4 -2 13.5 -33.5t9.5 -35.5q-23 -35 -19 -60q14 -12 31 -39q-2 0 -6 -53q4 0 6 -16q4 -80 -6 -152q-10 -31 0 -39q14 -2 34 -6q-2 -8 0 -18q6 2 17 0q10 -16 29 -39q14 -2 34 -12q2 -10 13 -29q8 -6 48 -21.5t50 -13.5q6 0 27.5 13.5t42.5 9.5 q10 -10 28 -23q12 -2 32.5 7t25.5 9q20 -2 47 -6q12 12 34 31q12 -2 41 4q6 12 23 31q6 -2 16 4q0 18 7 53q14 29 92 35q2 14 -6 39q-4 2 -17 6q-23 16 -29 47q-10 47 0 105q8 12 17 28q0 2 -5 10l-5 7q-8 29 22 133q-4 2 -6 12q12 4 23 12q4 10 4 21q0 10 -3.5 25.5 t-3.5 25.5t3 21q10 2 24 10q4 16 16 47q-57 45 -63 63q2 25 0 70q-4 8 -8 20.5t-2 26.5l10 35l-10 29q4 10 4 39q-12 12 -35 30q6 10 12 35q14 0 29 4q4 8 2 39t-8 43q-12 29 -121 55.5t-115 55.5v4q-6 45 0 59q8 0 23 4v19q0 2 13 20.5t16 20.5q23 -4 63 0q0 4 12 10 q2 8 6 18q-16 14 -6 58q-2 14 -24 41q-14 2 -51 10q8 14 16 35q4 20 -5 42.5t-5 32.5q8 6 16 19v10q16 0 47 6q10 12 23 23q-2 0 47 -4q8 6 14 15.5t14 23.5zM440 1929q-2 0 111 -18q4 -25 16 -58h19l28 -34v-17q-10 -6 -18 -12q6 -23 -6 -70q-6 -8 -34 -15t-36 -19v-29 q-45 -18 -63 -17q-51 4 -121 60q-76 59 -64 108q2 4 18.5 18.5t22.5 16.5q8 -2 17 0q8 23 24 51q8 6 86 35zM1180 1692q-2 0 0 -9q2 -6 6 -10v6q4 4 6 7q-2 8 -12 6z" />
<glyph unicode="&#xdf;" horiz-adv-x="1251" d="M696 1638q23 -12 60 -28q14 -4 32.5 4t24.5 6q14 0 37.5 -23.5t32.5 -27.5h18q16 -12 45 -29q20 0 53 -12q8 -27 25 -64q29 -27 76 -88q0 -25 10 -82q8 -6 18 -16q4 -27 -6 -53l-12 -6q0 -6 2 -19.5t4 -21.5q2 -55 -12 -105q-8 -12 -17 -29q2 -14 0 -40q-14 -41 -116 -82 v-48q18 -2 63 -6q8 -27 29 -69q16 -8 41 -29q2 -8 6 -25q14 -25 66 -51q-8 -57 -7 -65q18 -12 41 -39q0 -10 -12 -30.5t-12 -29.5q10 -6 24 -22q4 -14 -4 -35l-8 -24q0 -10 12 -48l-30 -16q-2 -10 12 -84q12 -66 18 -86q-8 -8 -18 -16q-18 0 -53 -6q-2 -12 -17 -35 q-6 -6 -23.5 -15.5t-17.5 -15.5q0 -10 23 -29q-4 -6 -4 -16q-12 4 -37 16q-2 -12 -16 -28q-18 2 -54 0q-20 -12 -57 -29q-16 0 -47 -6q-8 -12 -29 -29q-2 0 -24 12q-4 0 -17.5 -9t-17.5 -9q-12 -2 -35 4q-29 6 -35 8q-35 -8 -110 -6q-12 2 -29 6q-4 8 -12 17q-43 10 -111 0 l-18 -11q-25 -6 -91 -10q-76 -4 -96 4q-4 8 -10 17q-4 0 -11 -5l-7 -6q-12 -4 -29 -4q-74 0 -111 27v12q-6 0 -16 7.5t-26.5 53.5t-10.5 66q14 8 25 13q78 6 104 28q2 10 12 29q8 6 23 18q18 41 0 88l-12 6q-2 12 3 24.5t9 21.5q4 27 -2 67q-6 27 -10 55q-2 20 8 44t10 26 q6 41 -6 88l-12 12q-2 20 6 43t6 39q-10 18 -23 58q0 -10 4 82q2 39 0 88q0 18 -4 71q-4 43 0 68l11 29q-4 12 -7 47q8 16 19 41q-2 25 6 69q8 4 16 13q2 20 13 57q8 4 22 12q4 10 19 35q23 16 63 53q2 8 6 23q12 14 54 35v6q10 0 34 6q14 10 41 22q14 -2 41 0q14 10 41 23 q80 22 133 18zM784 1430v-13q-29 -6 -69 -12q-20 -2 -48 9t-46 9q-18 -12 -48 -24q-10 2 -28 0v-10q-8 -23 -70 -35q8 -18 17 -72q-43 -18 -80 -22q-2 -23 -6 -70q2 -2 6 -12q37 -8 41 -11q12 -6 22 -30q-4 -4 -18 -13q2 -16 0 -16q-20 -6 -45 -29v-69q10 -8 22 -25v-16 q6 0 17 -6q4 -23 0 -60q-14 -16 -39 -45q23 -33 22 -67q0 -33 -28 -91q18 -20 57 -53q2 -6 0 -18q-10 -6 -23 -23q2 -20 0 -57q0 -2 -6 -11.5t-6 -19.5q2 -18 23 -22l-5 -58h-12q2 -10 0 -30q10 -6 29 -17q16 -6 29 0q16 6 30 6q12 -10 29 -18q27 -2 34 20.5t13 42.5 q6 2 16 13h70q12 4 23 8q18 6 30 4q6 -8 19 -18q27 -2 75 -11q37 -10 37 -12q0 -4 -37 -35q8 -8 23 -18q63 -14 98 12v12q8 4 19 11q2 14 12 53q-12 6 -37 22q4 39 6 31q12 39 13 92q-66 23 -84 35q-35 20 -56 64q-18 0 -53 6q-2 10 -6 24q-2 4 -35 21.5t-41 19.5 q-16 0 -30.5 -14t-20.5 -17q0 2 -76 7q-2 4 -12 6q-2 8 -6 53q-39 14 -70 51q-2 8 0 25q16 12 41 35q16 29 51 63q33 10 90.5 3t85.5 3q8 10 23 23h18q6 8 17 18q16 2 47 6q0 25 6 64q12 2 29 6v12q14 4 28 17q6 31 13 69q-12 8 -35 35l-12 6v41q10 2 24 12v17q-2 -2 -6 12 q4 -6 6 6q-8 4 -18 13q2 10 0 22h-13v6q-8 2 -28 13l-6 16q6 -2 -52 -6q-10 16 7 12q1 9 -7 19z" />
<glyph unicode="&#xe4;" horiz-adv-x="1417" d="M975 1675q35 2 70.5 -22.5t46.5 -53.5q-2 -16 6 -40h28q2 -8 11 -19q-12 -25 -11 -41q8 -20 17 -41q-2 -6 -10 -16q-10 0 -31 -6q-12 -25 -49 -50q-8 0 -27 -4q-8 -4 -20 -22q-8 -10 -43 -19q-68 -12 -99 7q-6 12 -18 28h-19q-14 6 -33.5 56.5t-11.5 78.5q16 14 41 41 q18 27 23 47v17q4 8 59.5 32.5t69.5 26.5zM338 1669q35 0 61.5 -17.5t49.5 -35.5q43 -27 69 -76q0 -6 -4 -16h-18q-2 -6 -7 -13h-6v-47q-14 -4 -16 -6q2 -8 -6 -22q-23 -2 -64 -13q-4 -8 -12 -22h-12v-12q-4 -12 -41 -29q-76 -35 -117 -12q-20 12 -41 151q8 4 19 12 q2 8 -7 64q2 2 7 8q4 8 0 10q59 74 145 76zM590 1307q4 0 22.5 -11.5t22.5 -11.5q31 8 94 6q18 -18 41 -35q12 10 57 17q27 -4 72 -35q4 -10 16 -23q4 -4 7 -2v5q0 6 6 4v-13q37 -20 71 -39q43 -25 62 -49q4 -4 37 -57q-6 -2 -6 -10q0 -18 16 -52t27.5 -36t42.5 -9 q4 -4 12 -10l-6 -12h-23q-25 -6 -24 -37v-51q0 -2 -6.5 -14.5t-4.5 -20.5q0 -2 6.5 -18.5t4.5 -28.5q0 -2 -9.5 -16.5t-7.5 -30.5l13 -10q12 -37 4 -76q0 -8 -15.5 -29.5t-13.5 -42.5q2 -6 15.5 -24.5t13.5 -26.5q0 -10 -11 -19h-28q-2 -8 -1 -41l1 -34q2 -6 39 -29 q12 -12 30 -23q6 -2 31 1.5t33 3.5l6 12q18 4 33 4q51 0 84 -86q10 -20 22 -57q-4 -14 -6 -31q-8 -2 -22 -16q-8 -6 -17 -19v-22q-16 -12 -41 -35q10 0 10 -11q0 -18 -28 -59q-63 8 -105 -12q-10 -10 -31.5 -20.5t-80.5 -8.5q-61 2 -80 10q-14 20 -35 47q-14 14 -53 29 q-18 8 -29 6q-55 -8 -88 -28v-13q-12 -10 -29 -22q-8 2 -24 0l-6 -12q-20 4 -58 6q-12 -8 -28 -17q-25 2 -72 0q-25 -12 -70 -24q-10 0 -26.5 6t-20.5 6q-23 -4 -63 -6q-16 8 -41 18q-27 -4 -82 11q-12 25 -35 53q-20 6 -57 22q-20 12 -60 95q-14 25 -35 69q2 18 0 53 q-2 6 -13 26.5t-9 37.5q8 18 16 47q-6 14 -6 53q4 10 23.5 19.5t23.5 15.5v16q14 27 35 70q0 12 6 37q12 16 88 51v6q14 -2 35 0q4 14 12 35h11q-49 12 -76 35q-4 14 -23 35l-26 10q-10 4 -13 27q0 6 -2 10q-10 6 -22 24q-4 10 9 95.5t22.5 95.5t25.5 31v16q39 57 47.5 65.5 t61.5 41t61 34.5q12 -8 51 -12q18 16 54 35q23 -2 63 0q8 2 34 18.5t38 16.5zM584 1085l-13 -12q-23 2 -63 0q-16 -10 -41 -22h-12q0 -23 -13 -60h-22q-8 -41 0 -63q14 -20 12 -19q-4 4 -12 -4q4 -20 0 -31q-12 -8 -23 -22q2 -25 0 -76q129 -10 168 0l6 12q37 23 70 29 q31 4 88 -6q2 14 12 47q-10 0 66 -4q43 0 57 10q8 6 13.5 28.5t9.5 41.5q-25 12 -76 41q-4 6 -12 16q-10 2 -35 13q-8 14 -35 34q-33 4 -94 19q-2 0 -19 18q-12 12 -32 10zM793 596v-12q-20 -6 -76 -25q-8 -6 -23 -16q-45 0 -135 -6q-37 -14 -98 -35q-6 2 -19 0 q-2 -10 -10 -23q-20 -8 -53 -24q0 -14 2 -29q0 -12 -14 -18q-14 2 -41 0l-7 -11h-16q0 -8 6 -24q16 -8 41 -23q-2 -8 0 -18q6 2 17 0q10 -4 26.5 -28.5t26.5 -29.5h22q39 -10 54 -6q8 8 22 19q53 10 135 -19v-4q0 -2 6 -2v6q43 23 48 29q-2 12 4 35h12q8 14 25 30h45 q20 53 71 87q-8 4 4 12q0 2 -10 18h10q2 6 6 23q-14 10 -34 35q-4 18 -12 39.5t-35 19.5z" />
<glyph unicode="&#xf6;" horiz-adv-x="1269" d="M233 1571q37 6 93.5 -7.5t72.5 -29.5q8 -20 23 -51h10q4 -6 10 -17q23 -8 68 -32q-2 -23 -12 -72q-6 -4 -17 -10q-2 -10 -10 -23q-8 0 -29 -6q-6 -8 -20 -20q-25 -6 -68 -23q0 -4 -4 -16q-6 -2 -16 0q-4 4 -10.5 11t-28.5 5q-6 0 -27.5 -9t-38.5 -7q-8 6 -22 16 q-10 0 -33 6q-8 10 -22 27q-8 2 -23 10q-6 10 -6 29q0 14 6 44.5t6 41.5q0 14 -6 18q8 6 16 17q-2 12 0 32q23 14 52 33v12q3 17 36 21zM895 1571q29 6 55 -4q6 -4 48 -47t44 -47v-11q8 -4 23 -12q0 -6 6 -16q12 0 27 -7q4 -16 10 -49q0 -6 -4 -16q-10 -2 -33 -10v-13 q-41 -20 -80 -43q-57 -31 -100 -30q-14 0 -26.5 5t-24.5 15q-14 -2 -45 4q-4 4 -25.5 24.5t-24.5 24.5q2 8 0 19q-4 -4 -16 -23q-18 12 -55 43v17q2 4 12 12q2 0 43 4v68l82 71q25 -2 68 4q2 9 16 17zM559 1231q20 2 38.5 -10.5t20.5 -12.5q27 6 84 6q10 -12 33 -28 q25 2 72 -4q16 -6 41 -29q29 -29 35 -33q18 -4 51 -16q10 -12 37 -33q12 0 28 -6q0 -6 5 -23q14 -37 55 -49q6 -8 12 -20q-6 -16 0 -51q14 -2 33 -17q-4 -10 -6 -33q2 -16 61 -71q-18 -57 -18 -86q0 -16 9 -20.5t26 -14.5q2 -10 4 -23q10 0 28 -4v-32q-2 -8 -23.5 -34 t-21.5 -50q2 -14 21.5 -44t17.5 -49q-2 -16 -24.5 -34.5t-40.5 -20.5h-23q0 -8 -6 -22q-8 -6 -21 -23v-20q-8 -43 -45 -88q-8 -10 -29.5 -18.5t-29.5 -16.5v-11q-20 -12 -45 -32q-2 -10 -10 -27h-13q-16 -23 -36 -45q-18 -2 -52 -16q-4 -8 -16 -23q-10 0 -27 -4 q-4 -12 -16 -29q-16 2 -49 0q-16 -6 -45 -16q-20 -4 -48 6t-34 10l-27 -10q-4 -2 -84 10q-29 -4 -82 0q-25 20 -55 45q-8 -2 -22 0q-29 4 -60 27q-8 6 -22 23v16q-6 0 -17 6q0 6 -6 21q-20 20 -55 67q0 14 -10 43q-8 6 -23 17q-2 10 -10 32q-12 12 -27 33q-4 8 -11 67.5 t-7 65.5q12 20 12 21q0 8 -9 30.5t-7 40.5q8 16 16 39q4 29 -12.5 61.5t-10.5 65.5q10 16 23 43q-4 6 -6 23q6 39 33 78q12 6 28 22q-2 10 0 33h11q2 8 10 33h12q2 12 10 39q8 2 15.5 13t23.5 40q6 2 17 6q8 16 26 39q16 8 45 26q4 10 17 23q16 2 49 12q31 20 65 43 q14 2 29.5 -6t32.5 -4l6 10q18 11 49 23zM602 993q-6 -8 -16 -16q-37 2 -99 -16q-14 -29 -32 -60q-14 0 -45 -6q-8 -25 -27 -61q-12 -10 -33 -37q0 -12 -6 -29q-8 2 -22 -6q-2 -6 12 -70q-47 -20 -47 -55q0 -20 14 -55q6 -8 16 -23q-6 -23 0 -72q4 -10 27 -17t27 -9t18 -29 h10q10 -16 0 -39q8 -2 17 -4q0 -8 8 -19.5t18 -25.5v-16q10 -4 29 -17q23 -25 45 -51q33 -33 68 -33q8 0 16 4.5t18.5 14.5t28.5 22q12 2 31 -2q16 -4 29 2l67 56q-2 4 0 16q8 4 17 10q2 20 -9 29q-18 14 -20 14q0 12 -4 35q4 2 10 4v12q10 8 32.5 9.5t33 6.5t15.5 22.5 t10 21.5t20 12l-7 21q-16 0 -49 6q0 4 -12 10v22q16 6 45 17v100q-14 12 -39 33v16q0 2 13.5 20.5t9.5 39.5q-2 14 -23.5 30.5t-21.5 25.5t-4 28q-14 25 -72 53v6q-23 0 -66 6q-20 20 -51 43zM768 834q4 -4 10 -12.5t6 -12.5q0 -8 -16 -8q-20 2 -20 10q0 11 20 23z" />
<glyph unicode="&#xfc;" horiz-adv-x="1492" d="M391 1569q35 6 119 -47.5t88 -79.5q4 -23 -7 -39.5t-22 -30.5q-4 -25 -10 -51q-16 -4 -47 -12l-86 -58q-37 -25 -70 -16v4q-72 37 -82 64v12q-8 2 -22 12q-27 45 -16 98q0 10 38 64q2 10 13 29q20 8 63 28q14 11 41 23zM1032 1540q14 0 39 -11l25 -11q20 2 59 -7 q4 -10 16 -28q10 -6 23 -17v-24q6 0 18 -6q2 -6 6.5 -13.5t63.5 -21.5q-8 -2 -18 -10q0 -16 -17 -41q-10 0 -22 -7q-2 -2 -4 -26q0 -16 -16.5 -19.5t-33.5 -5.5q-16 -16 -86 -47q-100 -27 -167 12q-16 16 -54 46q-4 35 0 116q8 8 19 23q-2 -6 -6 53q27 4 81 16q25 15 74 29z M131 1153q12 2 24.5 -3t20.5 -9q23 -2 51.5 6t46.5 6q10 -2 76 -24.5t73 -28.5t8 -21.5t24 -23.5l6 -6q-2 -10 0 -23q14 -6 39 -22q18 -20 18 -56q0 -49 -29 -67q-10 -2 -34 -11q-2 -12 0 -30l16 -4q2 -10 6 -29q16 -18 35 -41l-12 -35q0 -6 3 -27.5t3 -29.5q-2 4 -11.5 9 t-17.5 5q-23 0 -24 -33q2 23 2 -57q12 -4 41 -18v-29q-4 0 -7 -10q10 0 -34 4q-25 -39 -23 -51q10 -20 23 -41q6 0 16 -7q2 -18 12 -57q27 -18 58 -51q4 -12 -6.5 -40t-10.5 -30q-6 -53 70 -92q27 37 63 80q31 4 80 29q4 18 25 47q16 2 45 12l57 64v10q8 0 25 6q4 12 16 29 q6 0 19 6q18 25 22 47q-2 12 0 35q2 2 29 22q-10 27 -23 58q-2 12 5.5 24t5.5 23q-18 16 -39 41v22l39 23q0 20 6 92q-14 2 -41 18q-2 6 -10 37q-6 20 -23 27q-25 -2 -70 0q-20 10 -41 22q-31 2 -75 6q0 12 -7 41q-12 51 -10 58q0 2 15.5 20.5t19.5 20.5q12 -2 35 0 q27 18 80 41q16 2 41 -4q14 -4 28 -9q41 -4 86 0q2 0 27 9q18 6 33 4q14 -4 35 -27q14 -16 28 -33q12 -8 35 -28q2 -4 16 -39q10 -27 23 -31q8 -2 53 6q27 6 25 6q2 0 20 -18h13q4 -2 12 -10q-2 -12 0 -35h-29q-2 -10 4 -47l-28 -7q-6 -14 0 -79l12 -7q0 -8 -6 -22 q-16 -4 -35 -18v-11q31 0 63 -24q-4 -29 -6 -29q4 0 -28 6q-18 -27 -27 -28q-4 -2 -43 0q2 -6 0 -19q-6 -4 -16 -16q-8 4 -29 12q-2 -8 0 -25q23 -18 51 -39q0 -2 -2 -22q0 -6 -4 -8h-23q-29 -66 -28 -82q0 -14 6 -27q8 -2 15 -6t11.5 -30.5t2.5 -39.5q-6 -12 -19 -34h-10 q0 -10 -6 -35q0 -6 6 -17h10q27 -10 35 -47v-34q6 0 12 -13q33 4 92 0q12 -14 35 -29.5t105 -21.5q2 -10 0 -29q-8 -2 -17 -6q-2 -10 -6 -35h-12q2 -16 0 -45q-10 -10 -23 -24v-10q-25 -27 -137 -27q-170 0 -221 31q-25 16 -63.5 59t-59.5 57q-2 -2 -12 -2t-11.5 -7 t-5.5 -19l-41 -23h-28q-2 -8 -4 -18q-8 0 -25 -6q-10 -20 -35 -45q-18 2 -51 4l-18 -11q-27 2 -80 0q-96 -14 -105 -12q-23 12 -63 29q-18 4 -51 18q-10 27 -31 70q-33 10 -74 39q0 29 -12 82q-14 8 -29 22q4 29 6 88q2 29 0 86q0 2 -6 12.5t-6 16.5l12 12q6 27 3 84.5 t8 83.5l12 4q8 61 0 101q0 2 -12.5 22.5t-10.5 34.5q4 10 11 29h12v86q-8 6 -23 18q-6 14 -24 35q-18 8 -56 5t-59 11q-35 25 -35 60q0 14 6 32q20 68 21 70q16 37 49 41z" />
<glyph unicode="&#x2000;" horiz-adv-x="979" />
<glyph unicode="&#x2001;" horiz-adv-x="1958" />
<glyph unicode="&#x2002;" horiz-adv-x="979" />
<glyph unicode="&#x2003;" horiz-adv-x="1958" />
<glyph unicode="&#x2004;" horiz-adv-x="652" />
<glyph unicode="&#x2005;" horiz-adv-x="489" />
<glyph unicode="&#x2006;" horiz-adv-x="326" />
<glyph unicode="&#x2007;" horiz-adv-x="326" />
<glyph unicode="&#x2008;" horiz-adv-x="244" />
<glyph unicode="&#x2009;" horiz-adv-x="391" />
<glyph unicode="&#x200a;" horiz-adv-x="108" />
<glyph unicode="&#x2010;" d="M399 1038q18 4 21 -8v-24q8 -4 16 -9q12 -2 31.5 9.5t32.5 11.5l12 -8q12 -4 26.5 2t24.5 6q14 -6 37 -12q27 2 84 4q25 -6 31 -4q12 6 28 12q8 0 23 -6l14 -6q16 2 43 4q8 -10 21 -23q16 -4 43.5 5t44.5 5v-4q14 -6 43 -22l4 -8q14 2 41 -5q23 -37 51 -84l12 -8 q2 -8 -3 -16l-5 -8q2 -4 4 -19h4q0 -6 -4 -20q-2 -4 -36.5 -39t-38.5 -37q-25 -12 -71 -13t-89 -3q-2 0 -26.5 -5.5t-37.5 -3.5l-14 6q-14 7 -18 7q-6 -6 -17 -13q-2 0 -55 9q-16 -4 -55 -4q-6 0 -19.5 6t-21.5 6q-10 -2 -21 -6q-18 -4 -31 -2q-12 6 -28 12q-8 -2 -29 -4 q-16 6 -39 12q-6 0 -27.5 -8t-23.5 -8q-8 0 -31.5 8t-30.5 8q-14 2 -92 -4q-55 -4 -86 8q-2 6 -8 13q-41 33 -49 86q-20 115 8 133h21l4 8q33 23 71 47q31 -6 93 -8q6 2 15 6t19 2t31 -20.5t35 -18.5l10 10q12 6 12 11q0 2 -6 6t-6 8q0 10 4 16q-10 0 4 4z" />
<glyph unicode="&#x2011;" d="M399 1038q18 4 21 -8v-24q8 -4 16 -9q12 -2 31.5 9.5t32.5 11.5l12 -8q12 -4 26.5 2t24.5 6q14 -6 37 -12q27 2 84 4q25 -6 31 -4q12 6 28 12q8 0 23 -6l14 -6q16 2 43 4q8 -10 21 -23q16 -4 43.5 5t44.5 5v-4q14 -6 43 -22l4 -8q14 2 41 -5q23 -37 51 -84l12 -8 q2 -8 -3 -16l-5 -8q2 -4 4 -19h4q0 -6 -4 -20q-2 -4 -36.5 -39t-38.5 -37q-25 -12 -71 -13t-89 -3q-2 0 -26.5 -5.5t-37.5 -3.5l-14 6q-14 7 -18 7q-6 -6 -17 -13q-2 0 -55 9q-16 -4 -55 -4q-6 0 -19.5 6t-21.5 6q-10 -2 -21 -6q-18 -4 -31 -2q-12 6 -28 12q-8 -2 -29 -4 q-16 6 -39 12q-6 0 -27.5 -8t-23.5 -8q-8 0 -31.5 8t-30.5 8q-14 2 -92 -4q-55 -4 -86 8q-2 6 -8 13q-41 33 -49 86q-20 115 8 133h21l4 8q33 23 71 47q31 -6 93 -8q6 2 15 6t19 2t31 -20.5t35 -18.5l10 10q12 6 12 11q0 2 -6 6t-6 8q0 10 4 16q-10 0 4 4z" />
<glyph unicode="&#x2012;" d="M399 1038q18 4 21 -8v-24q8 -4 16 -9q12 -2 31.5 9.5t32.5 11.5l12 -8q12 -4 26.5 2t24.5 6q14 -6 37 -12q27 2 84 4q25 -6 31 -4q12 6 28 12q8 0 23 -6l14 -6q16 2 43 4q8 -10 21 -23q16 -4 43.5 5t44.5 5v-4q14 -6 43 -22l4 -8q14 2 41 -5q23 -37 51 -84l12 -8 q2 -8 -3 -16l-5 -8q2 -4 4 -19h4q0 -6 -4 -20q-2 -4 -36.5 -39t-38.5 -37q-25 -12 -71 -13t-89 -3q-2 0 -26.5 -5.5t-37.5 -3.5l-14 6q-14 7 -18 7q-6 -6 -17 -13q-2 0 -55 9q-16 -4 -55 -4q-6 0 -19.5 6t-21.5 6q-10 -2 -21 -6q-18 -4 -31 -2q-12 6 -28 12q-8 -2 -29 -4 q-16 6 -39 12q-6 0 -27.5 -8t-23.5 -8q-8 0 -31.5 8t-30.5 8q-14 2 -92 -4q-55 -4 -86 8q-2 6 -8 13q-41 33 -49 86q-20 115 8 133h21l4 8q33 23 71 47q31 -6 93 -8q6 2 15 6t19 2t31 -20.5t35 -18.5l10 10q12 6 12 11q0 2 -6 6t-6 8q0 10 4 16q-10 0 4 4z" />
<glyph unicode="&#x2013;" horiz-adv-x="1181" d="M403 1038q19 4 22 -8v-24q8 -4 16 -9q12 -2 32 9.5t33 11.5l12 -8q12 -4 27 2t25 6q14 -6 38 -12q27 2 85 4q25 -6 32 -4q12 6 28 12q8 0 23 -6l15 -6q16 2 43 4q8 -10 22 -23q16 -4 44 5t45 5v-4q14 -6 44 -22l4 -8q14 2 41 -5q24 -37 52 -84l12 -8q2 -8 -3 -16l-5 -8 q2 -4 4 -19h4q0 -6 -4 -20q-2 -4 -37 -39t-39 -37q-25 -12 -72 -13t-90 -3q-2 0 -27 -5.5t-38 -3.5l-15 6q-14 7 -18 7q-6 -6 -17 -13q-2 0 -56 9q-16 -4 -56 -4q-6 0 -19.5 6t-22.5 6q-10 -2 -21 -6q-18 -4 -31 -2q-13 6 -29 12q-8 -2 -29 -4q-17 6 -40 12q-6 0 -28 -8 t-24 -8q-8 0 -32 8t-31 8q-14 2 -93 -4q-56 -4 -88 8q-2 6 -8 13q-41 33 -50 86q-20 115 9 133h21l4 8q34 23 72 47q32 -6 95 -8q6 2 15 6t19 2t31.5 -20.5t35.5 -18.5l10 10q13 6 13 11q0 2 -6.5 6t-6.5 8q0 10 4 16q-10 0 4 4z" />
<glyph unicode="&#x2014;" horiz-adv-x="2205" d="M732 1038q37 4 43 -8v-24q16 -4 32 -9q25 -2 64.5 9.5t65.5 11.5l25 -8q24 -4 53.5 2t49.5 6q29 -6 75 -12q55 2 171 4q51 -6 63 -4q24 6 57 12q16 0 47 -6l28 -6q33 2 88 4q16 -10 42 -23q33 -4 88.5 5t90.5 5v-4q28 -6 87 -22q4 -4 9 -8q28 2 83 -5q47 -37 103 -84 q13 -4 25 -8q4 -8 -6 -16l-10 -8q4 -4 8 -19h8q0 -6 -8 -20q-4 -4 -74.5 -39t-78.5 -37q-50 -12 -143.5 -13t-181.5 -3q-4 0 -53.5 -5.5t-76.5 -3.5l-28 6q-29 7 -37 7q-12 -6 -34 -13q-4 0 -112 9q-33 -4 -112 -4q-12 0 -39.5 6t-43.5 6q-21 -2 -43 -6q-36 -4 -63 -2 q-24 6 -57 12q-16 -2 -59 -4q-32 6 -79 12q-12 0 -56 -8t-48 -8q-16 0 -63.5 8t-62.5 8q-28 2 -187 -4q-111 -4 -174 8q-4 6 -17 13q-83 33 -99 86q-41 115 16 133h43l8 8q67 23 144 47q63 -6 189 -8q12 2 30.5 6t38.5 2q21 -2 63.5 -20.5t70.5 -18.5l21 10q24 6 24 11 q0 2 -12 6t-12 8q0 10 8 16q-20 0 8 4z" />
<glyph unicode="&#x2018;" horiz-adv-x="487" d="M227 1640q10 -8 29 -18q6 4 20 4q6 -6 15 -16q25 -10 57 -29q6 -18 23 -55q6 -6 16 -21q-2 -6 0 -16q10 -12 25 -39q-4 -12 -4 -45l8 -8q2 -6 12 -56l-12 -8q2 -10 0 -26q-18 -18 -45 -50q4 0 -4 -8q4 -14 4 -47q-8 -6 -19 -20q-4 -23 16 -52l19 -28q2 -27 -35 -60 q4 -2 2 -20q-4 -18 -8 -20.5t-18 -8.5q-12 -23 -41 -51q-18 -8 -45 -8q-78 0 -103 33q-43 55 -30 155q6 16 4 21q-6 8 -13 18q-4 53 -16 113q2 2 4 8q-10 16 -20 35q6 8 8 37q-6 4 -10.5 10t-6.5 51q-2 47 0 58q10 12 25 36q0 14 8 43q14 4 35 17q2 14 12 37q2 4 42 19 t46 15z" />
<glyph unicode="&#x2019;" horiz-adv-x="487" d="M227 1640q10 -8 29 -18q6 4 20 4q6 -6 15 -16q25 -10 57 -29q6 -18 23 -55q6 -6 16 -21q-2 -6 0 -16q10 -12 25 -39q-4 -12 -4 -45l8 -8q2 -6 12 -56l-12 -8q2 -10 0 -26q-18 -18 -45 -50q4 0 -4 -8q4 -14 4 -47q-8 -6 -19 -20q-4 -23 16 -52l19 -28q2 -27 -35 -60 q4 -2 2 -20q-4 -18 -8 -20.5t-18 -8.5q-12 -23 -41 -51q-18 -8 -45 -8q-78 0 -103 33q-43 55 -30 155q6 16 4 21q-6 8 -13 18q-4 53 -16 113q2 2 4 8q-10 16 -20 35q6 8 8 37q-6 4 -10.5 10t-6.5 51q-2 47 0 58q10 12 25 36q0 14 8 43q14 4 35 17q2 14 12 37q2 4 42 19 t46 15z" />
<glyph unicode="&#x201a;" horiz-adv-x="790" d="M414 506q18 2 50 -11.5t40 -23.5q4 -16 16 -41q18 -10 51 -31q2 -2 39 -41v-10q10 0 27 -8q4 -6 10 -18q-8 -4 -4 -27q14 -16 8 -23q-10 -8 -10 -32q0 -35 -4 -43l-8 -9q4 -23 4 -67l-12 -43q-8 -23 0 -43v-8q-27 -25 -56 -52q-4 -10 0 -49q-37 -49 -49 -53h-8 q-2 -10 -10 -31q-18 -41 -49 -59q-18 -2 -54 -12q-4 -12 -14 -29q-6 2 -16 0q-6 -8 -19 -16q-18 -6 -76 8q-29 2 -73 18q-2 2 -12.5 65.5t-8.5 73.5l8 5q0 10 4 26h9q12 16 41 41v4h18l37 27q2 10 0 33q-6 4 -14 12q0 10 -5 31q-31 25 -71 67v19q-18 18 -45 49q-2 12 -11 41 q-8 12 -8 14q10 12 23 39q-2 18 4 49q8 4 22 14q2 10 15 37q8 12 25.5 17.5t35.5 9.5q33 10 33 23q0 8 -10 16q6 6 14 10q14 -4 45 -4l4 12q29 23 64 23z" />
<glyph unicode="&#x201c;" horiz-adv-x="837" d="M211 1663q53 6 84 -23q0 -10 5 -22t32.5 -24.5t44.5 -8.5q6 8 14 19h15q12 8 32 18q16 0 49 4q33 16 99 37q23 2 53 -12q20 -12 43 -25v-18l41 -23l22 8q2 -4 11 -18l8 -4q10 -25 0 -51l-8 -4q6 -6 4 -33q0 -2 -14.5 -18.5t-12.5 -26.5q10 -8 23 -25q4 -8 4 -18 q0 -8 -10.5 -27.5t-8.5 -40.5q4 -16 9 -33q6 -25 2 -37q-23 -10 -47 -28q0 -16 -5 -45h-10q-4 -25 -4 -27q0 -8 19 -14q6 -4 22 0l6 -15q-10 -8 -28 -18h-19q-18 -12 -27 -125q-82 -27 -79 -27q-20 0 -56 27h-8q-4 6 -10 19h-8q-6 10 -5 33.5t-6 35.5h-8q-23 8 -28 23 q2 8 0 22q6 2 13 8.5t15 10.5v18l-4 10q0 12 -6 37q-10 10 -23 27q-2 14 13.5 33.5t15.5 33.5q0 12 -6 25q-10 6 -27 25q-6 12 0 40q-4 12 -8 27q-4 4 -22.5 9t-28.5 5q-20 0 -25 -20q-8 -35 -12 -41t-29 -16q-4 -20 -10 -52q8 -2 25 -8q-8 -6 -15 -14q2 -10 5 -33 q-4 -16 -15 -51q8 -2 12.5 -4t6.5 -19q-4 2 -13 -22h-10q0 -4 10 -14q2 -18 -10 -37q-14 -6 -33 -23q-2 -8 6 -51q-18 -6 -47 -23q0 -4 -4 -14q-10 -16 -51 -22q-20 20 -51 69q-20 49 -12 129l4 15q4 16 4 26q0 2 -4 18.5t-4 18.5q0 4 6 35t2 47q-6 6 -15 14q0 23 -12 51 q2 2 4 9q-10 12 -22 32q-10 29 0 52l8 4q-6 31 -4 98q0 2 15.5 29.5t16.5 29.5t50 12.5t51 10.5zM362 1575q-8 -4 -26 -12q0 -2 4 -25l14 -4v-8q-2 6 -4 -15q8 -8 8 -10h-8q-4 -10 -14 -22h-4q2 -4 4 -19h14q2 0 23 -14q14 0 35.5 11t23.5 22v77q-16 6 -33 13q-23 8 -37 6z " />
<glyph unicode="&#x201d;" horiz-adv-x="837" d="M211 1663q53 6 84 -23q0 -10 5 -22t32.5 -24.5t44.5 -8.5q6 8 14 19h15q12 8 32 18q16 0 49 4q33 16 99 37q23 2 53 -12q20 -12 43 -25v-18l41 -23l22 8q2 -4 11 -18l8 -4q10 -25 0 -51l-8 -4q6 -6 4 -33q0 -2 -14.5 -18.5t-12.5 -26.5q10 -8 23 -25q4 -8 4 -18 q0 -8 -10.5 -27.5t-8.5 -40.5q4 -16 9 -33q6 -25 2 -37q-23 -10 -47 -28q0 -16 -5 -45h-10q-4 -25 -4 -27q0 -8 19 -14q6 -4 22 0l6 -15q-10 -8 -28 -18h-19q-18 -12 -27 -125q-82 -27 -79 -27q-20 0 -56 27h-8q-4 6 -10 19h-8q-6 10 -5 33.5t-6 35.5h-8q-23 8 -28 23 q2 8 0 22q6 2 13 8.5t15 10.5v18l-4 10q0 12 -6 37q-10 10 -23 27q-2 14 13.5 33.5t15.5 33.5q0 12 -6 25q-10 6 -27 25q-6 12 0 40q-4 12 -8 27q-4 4 -22.5 9t-28.5 5q-20 0 -25 -20q-8 -35 -12 -41t-29 -16q-4 -20 -10 -52q8 -2 25 -8q-8 -6 -15 -14q2 -10 5 -33 q-4 -16 -15 -51q8 -2 12.5 -4t6.5 -19q-4 2 -13 -22h-10q0 -4 10 -14q2 -18 -10 -37q-14 -6 -33 -23q-2 -8 6 -51q-18 -6 -47 -23q0 -4 -4 -14q-10 -16 -51 -22q-20 20 -51 69q-20 49 -12 129l4 15q4 16 4 26q0 2 -4 18.5t-4 18.5q0 4 6 35t2 47q-6 6 -15 14q0 23 -12 51 q2 2 4 9q-10 12 -22 32q-10 29 0 52l8 4q-6 31 -4 98q0 2 15.5 29.5t16.5 29.5t50 12.5t51 10.5zM362 1575q-8 -4 -26 -12q0 -2 4 -25l14 -4v-8q-2 6 -4 -15q8 -8 8 -10h-8q-4 -10 -14 -22h-4q2 -4 4 -19h14q2 0 23 -14q14 0 35.5 11t23.5 22v77q-16 6 -33 13q-23 8 -37 6z " />
<glyph unicode="&#x201e;" horiz-adv-x="837" d="M211 678q53 6 84 -23q0 -10 5 -22t32.5 -24.5t44.5 -8.5q6 8 14 18h15q12 8 32 19q16 0 49 4q33 16 99 37q23 2 53 -12q20 -12 43 -25v-18l41 -23l22 8q2 -4 11 -18l8 -4q10 -25 0 -51l-8 -5q6 -6 4 -32q0 -2 -14.5 -18.5t-12.5 -26.5q10 -8 23 -25q4 -8 4 -18 q0 -8 -10.5 -28t-8.5 -40q4 -16 9 -33q6 -25 2 -37q-23 -10 -47 -28q0 -16 -5 -45h-10q-4 -25 -4 -27q0 -8 19 -14q6 -4 22 0l6 -15q-10 -8 -28 -18h-19q-18 -12 -27 -125q-82 -27 -79 -27q-20 0 -56 27h-8q-4 6 -10 18h-8q-6 10 -5 34t-6 36h-8q-23 8 -28 23q2 8 0 22 q6 2 13 8t15 11v18l-4 10q0 12 -6 37q-10 10 -23 27q-2 14 13.5 33.5t15.5 33.5q0 12 -6 25q-10 6 -27 24q-6 12 0 41q-4 12 -8 27q-4 4 -22.5 9t-28.5 5q-20 0 -25 -20q-8 -35 -12 -41t-29 -16q-4 -20 -10 -52q8 -2 25 -8q-8 -6 -15 -14q2 -10 5 -33q-4 -16 -15 -51 q8 -2 12.5 -4t6.5 -19q-4 2 -13 -22h-10q0 -4 10 -15q2 -18 -10 -36q-14 -6 -33 -23q-2 -8 6 -51q-18 -6 -47 -23q0 -4 -4 -14q-10 -16 -51 -23q-20 20 -51 70q-20 49 -12 129l4 16q4 15 4 25q0 2 -4 18.5t-4 18.5q0 4 6 34.5t2 47.5q-6 6 -15 14q0 23 -12 51q2 2 4 9 q-10 12 -22 32q-10 29 0 52l8 4q-6 31 -4 98q0 2 15.5 29.5t16.5 29.5t50 12.5t51 10.5zM362 590q-8 -4 -26 -12q0 -2 4 -25l14 -4v-8q-2 6 -4 -15q8 -8 8 -10h-8q-4 -10 -14 -22h-4q2 -4 4 -19h14q2 0 23 -14q14 0 35.5 11t23.5 22v77q-16 6 -33 13q-23 8 -37 6z" />
<glyph unicode="&#x202f;" horiz-adv-x="391" />
<glyph unicode="&#x205f;" horiz-adv-x="489" />
<glyph unicode="&#xe000;" horiz-adv-x="1208" d="M0 1208h1208v-1208h-1208v1208z" />
</font>
</defs>
</svg>
